Роковая красотка / Priceless / Hors de prix (Пьер Сальвадори / Pierre Salvadori) [2006, Франция, комедия, мелодрама, BDRip] Dub

 
Автор Сообщение

painkiller ®

Стаж: 2 года 3 месяца

Сообщений: 582



Награды: Нет

Торрент-статистика

Создавать темы 14-Авг-2014 13:00

[Цитировать]

Роковая красотка / Priceless / Hors de prix
«Никогда не знаешь, с кем проснешься утром»
- Страна: Франция
Жанр: комедия, мелодрама
Год выпуска: 2006
Продолжительность: 01:45:54
Перевод: Профессиональный (дублированный)
Cубтитры: нет
Оригинальная аудиодорожка: нет-Режиссер:
Пьер Сальвадори / Pierre Salvadori-В ролях:
Одри Тоту Гад Элмале, Мари-Кристин Адам, Вернон Добчефф, Жак Списсер, Аннелиз Хесме, Шарлотта Вермейл, Клодин Башет, Лорен Кларет, Жан Де Конинк-Описание:
Авантюристка Ирен принимает скромного служащего отеля Жана за миллиардера. Обнаружив свою ошибку, она тут же покидает его, однако влюбленный Жан бросается следом. Его сбережения быстро заканчиваются, и от отчаяния Жан принимает предложение стать сопровождающим немолодой, но чрезвычайно обеспеченной дамы. Новый статус сближает его с Ирен, которая, в конце концов, смиряется с присутствием Жана. Она помогает Жану советом, и, сама того не осознавая, начинает все больше и больше привязываться к нему.-Сэмпл | КиноПоиск | IMDb-Качество видео: BDRip | исх. [Blu-Ray Disc]
Формат видео: AVI
Видео: 720x304 (2.35:1), 23.976 fps, XviD build 65 ~1518 kbps avg, 0.289 bit/pixel
Аудио: 48.0 kHz, AC3 Dolby Digital, 3/2 (L,C,R,l,r) + LFE ch, ~448 kbps | Dub
Размер: 1495.99 Mb (1/3 DVD)
-

MediaInfo

Общее
Полное имя : A:\Фильмы\Priceless 2006.BDRip.XviD.1.46Gb.AC3.avi
Формат : AVI
Формат/Информация : Audio Video Interleave
Размер файла : 1,46 Гбайт
Продолжительность : 1 ч. 45 м.
Общий поток : 1975 Кбит/сек
Программа кодирования : VirtualDubMod 1.5.10.2 (build 2540/release)
Библиотека кодирования : VirtualDubMod build 2540/release
Видео
Идентификатор : 0
Формат : MPEG-4 Visual
Профиль формата : Advanced Simple@L5
Параметр BVOP формата : 1
Параметр QPel формата : Нет
Параметр GMC формата : Без точки перехода
Параметр матрицы формата : Выборочная
Идентификатор кодека : XVID
Идентификатор кодека/Подсказка : XviD
Продолжительность : 1 ч. 45 м.
Битрейт : 1518 Кбит/сек
Ширина : 720 пикселей
Высота : 304 пикселя
Соотношение сторон : 2,35:1
Частота кадров : 23,976 кадра/сек
Цветовое пространство : YUV
Субдискретизация насыщенности : 4:2:0
Битовая глубина : 8 бит
Тип развёртки : Прогрессивная
Метод сжатия : С потерями
Бит/(Пиксели*Кадры) : 0.289
Размер потока : 1,12 Гбайт (77%)
Библиотека кодирования : XviD 65
Аудио
Идентификатор : 1
Формат : AC-3
Формат/Информация : Audio Coding 3
Расширение режима : CM (complete main)
Параметр Endianness формата : Big
Идентификатор кодека : 2000
Продолжительность : 1 ч. 45 м.
Вид битрейта : Постоянный
Битрейт : 448 Кбит/сек
Каналы : 6 каналов
Расположение каналов : Front: L C R, Side: L R, LFE
Частота : 48,0 КГц
Битовая глубина : 16 бит
Метод сжатия : С потерями
Размер потока : 339 Мбайт (23%)
Выравнивание : Разделение по промежуткам
Продолжительность промежутка : 42 мс. (1,00 видеокадр)
Время предзагрузки промежутка : 500 мс.

Скриншот c названием фильма

Скриншоты

[Профиль] [ЛС]

Создавать темы 06-Авг-2015 23:14 (спустя 11 месяцев 23 дня)

Топик был перенесен из форума Фильмы до 2014 года в форум Фильмы до 2012 года
sergej644
 
Кто просматривает тему:

Форум Тема Автор Размер
Программы [Разное] Тайны великих пророков v1.0 [Android 2.0+, RUS] TorrentFilm 5 MB
Разная литература Александр Кондрашов | Доктор Борменталь. 8 уроков сжигания жира (2015) [FB2, RTF] достали все 10 MB
Фильмы 2011 года Бесценный / Роковая красотка / Hors de prix (Пьер Сальвадори / Pierre Salvadori) [2006, Франция, мелодрама, комедия, DVDRip] AVO (Евгений Гранкин) + Original Fre TorrentFilm 1.5 GB
Мультфильмы СССР В стране невыученных уроков (1969) DVDRip-AVC от New-Team Белочка 335 MB
Иностранные языки Н.Ф. Орлова (ред.) | Английская грамматика шутя и всерьез. 440 мини-уроков (2013) [PDF] sergej644 180 MB
Иностранные языки Наталья Караванова | Английский на каждый день: 365 мини-уроков (2015) [PDF] достали все 7 MB
Индийское кино Роковая встреча / Calcutta Mail (2003) DVDRip | Р Russian Mafia 2.18 GB
Фильмы 2010 года Роковая встреча / Травматический фактор / La mauvaise rencontre (Жози Дайан / Josée Dayan) [2010, Франция, драма, SATRip] + Sub Rus + Original Fre TorrentFilm 1.46 GB
Показать сообщения:    

Текущее время: Сегодня 21:27

Часовой пояс: GMT



Вы не можете начинать темы
Вы не можете отвечать на сообщения
Вы не можете редактировать свои сообщения
Вы не можете удалять свои сообщения
Вы не можете голосовать в опросах
Вы не можете прикреплять файлы к сообщениям
Вы не можете скачивать файлы