Роковая встреча / Травматический фактор / La mauvaise rencontre (Жози Дайан / Josée Dayan) [2010, Франция, драма, SATRip] + Sub Rus + Original Fre

 
Автор Сообщение

TorrentFilm ®

Пол:

Стаж: 2 года

Сообщений: 7741



Награды: Нет

Торрент-статистика

Создавать темы 09-Июн-2015 00:04

[Цитировать]

Роковая встреча / Травматический фактор / La mauvaise rencontre
Страна: Франция
Жанр: драма
Год выпуска: 2010
Продолжительность: 01:29:56
Перевод: Субтитры
Cубтитры: русские (русский перевод А.Вижье, Éclair Group)
Оригинальная аудиодорожка: французский

Режиссер: Жози Дайан / Josée Dayan
В ролях: Жанна Моро, Маттье Дессертен, Самюэль Мерсер, Жан-Юг Англад, Каролин Сиоль, Жак Спессье, Аньезе Нано, Вероника Варга, Марко Биссон, Немо Олхюнд Брюно
Описание: Это необычная и реальная история о двух мальчиках, случайно познакомившихся в детстве, присев на одну скамейку в сквере. Луп и Мандо вместе растут, разделяют общие интересы: книги, политика, психоанализ, спиритизм. Но затем их пути мало-помалу расходятся, и каждый живет собственной жизнью.
Качество видео: SATRip
Формат видео: AVI
Видео: 688x384 (1.79:1), 25 fps, XviD build 73 ~2114 kbps avg, 0.32 bit/pixel
Аудио: 48 kHz, AC3 Dolby Digital, 2/0 (L,R) ch, ~192 kbps

Фрагмент субтитров

1003
01:03:57,640 --> 01:03:59,767
Апельсиновый сок или воду?
1004
01:03:59,920 --> 01:04:02,764
Я предпочла бы водки,
если у вас есть.
1005
01:04:02,920 --> 01:04:04,205
Я полька.
1006
01:04:05,400 --> 01:04:07,527
Выпьем за загробную жизнь.
1007
01:04:18,520 --> 01:04:19,726
Так что вы говорили?
1008
01:04:21,560 --> 01:04:23,801
Моя мама умерла,
когда мне было 8 лет.
1009
01:04:25,920 --> 01:04:27,046
Но самым странным
1010
01:04:27,200 --> 01:04:31,887
была не эта внезапная смерть.
1011
01:04:32,960 --> 01:04:35,770
Больше всего меня пронзило то,
1012
01:04:35,920 --> 01:04:39,970
что я была с ней, в ее постели,
когда ее сердце
1013
01:04:40,120 --> 01:04:41,610
остановилось.
1014
01:04:45,360 --> 01:04:48,602
Думаю, именно поэтом
я выбрала такую профессию.
1015
01:04:50,400 --> 01:04:53,085
Я хочу сопровождать людей
в момент их смерти,
1016
01:04:54,120 --> 01:04:57,248
чтобы загладить чувство бессилия,
которое я испытала.
1017
01:04:57,400 --> 01:05:00,881
Как если бы на меня
была возложена особая миссия:
1018
01:05:02,360 --> 01:05:04,248
быть ангелом смерти.
1019
01:05:04,880 --> 01:05:07,201
Помогать тем,
кто умирает в одиночестве.

MediaInfo

Общее
Полное имя : H:\La.mauvaise.rencontre.2010.satrip_[1.46]_[teko]\La.mauvaise.rencontre.2010.satrip_[1.46].avi
Формат : AVI
Формат/Информация : Audio Video Interleave
Размер файла : 1,46 Гбайт
Продолжительность : 1 ч. 29 м.
Общий поток : 2317 Кбит/сек
Программа кодирования : VirtualDubMod 1.5.10.3 | www.virtualdub-fr.org || (build 2550/release)
Библиотека кодирования : VirtualDubMod build 2550/release
Видео
Идентификатор : 0
Формат : MPEG-4 Visual
Профиль формата : Advanced Simple@L5
Параметр BVOP формата : 1
Параметр QPel формата : Нет
Параметр GMC формата : Без точки перехода
Параметр матрицы формата : Выборочная
Идентификатор кодека : XVID
Идентификатор кодека/Подсказка : XviD
Продолжительность : 1 ч. 29 м.
Битрейт : 2115 Кбит/сек
Ширина : 688 пикселей
Высота : 384 пикселя
Соотношение сторон : 16:9
Частота кадров : 25,000 кадров/сек
Цветовое пространство : YUV
Субдискретизация насыщенности : 4:2:0
Битовая глубина : 8 бит
Тип развёртки : Прогрессивная
Метод сжатия : С потерями
Бит/(Пиксели*Кадры) : 0.320
Размер потока : 1,33 Гбайт (91%)
Библиотека кодирования : XviD 73
Аудио
Идентификатор : 1
Формат : AC-3
Формат/Информация : Audio Coding 3
Расширение режима : CM (complete main)
Параметр Endianness формата : Big
Идентификатор кодека : 2000
Продолжительность : 1 ч. 29 м.
Вид битрейта : Постоянный
Битрейт : 192 Кбит/сек
Каналы : 2 канала
Расположение каналов : Front: L R
Частота : 48,0 КГц
Битовая глубина : 16 бит
Метод сжатия : С потерями
Размер потока : 124 Мбайт (8%)
Выравнивание : Разделение по промежуткам
Продолжительность промежутка : 40 мс. (1,00 видеокадр)
Время предзагрузки промежутка : 500 мс.
Релиз группы:
--
[Профиль] [ЛС]

Создавать темы 06-Авг-2015 22:29 (спустя 1 месяц 27 дней)

Топик был перенесен из форума Фильмы до 2014 года в форум Фильмы до 2012 года
sergej644
 

Создавать темы 12-Июн-2016 07:55 (спустя 1 год)

Топик был перенесен из форума Фильмы 2011 года в форум Фильмы 2010 года
Russian Mafia
 
Кто просматривает тему:

Форум Тема Автор Размер
Программы [Разное] Тайны великих пророков v1.0 [Android 2.0+, RUS] TorrentFilm 5 MB
Разная литература Александр Кондрашов | Доктор Борменталь. 8 уроков сжигания жира (2015) [FB2, RTF] достали все 10 MB
Фильмы 2011 года Бесценный / Роковая красотка / Hors de prix (Пьер Сальвадори / Pierre Salvadori) [2006, Франция, мелодрама, комедия, DVDRip] AVO (Евгений Гранкин) + Original Fre TorrentFilm 1.5 GB
Мультфильмы СССР В стране невыученных уроков (1969) DVDRip-AVC от New-Team Белочка 335 MB
Иностранные языки Н.Ф. Орлова (ред.) | Английская грамматика шутя и всерьез. 440 мини-уроков (2013) [PDF] sergej644 180 MB
Иностранные языки Наталья Караванова | Английский на каждый день: 365 мини-уроков (2015) [PDF] достали все 7 MB
Индийское кино Роковая встреча / Calcutta Mail (2003) DVDRip | Р Russian Mafia 2.18 GB
Фильмы 2010 года Роковая встреча / Травматический фактор / La mauvaise rencontre (Жози Дайан / Josee Dayan / Josée Dayan) [2010, Франция, психологическая драма, DVB] Original (Fre) + Sub (rus) TorrentFilm 2.19 GB
Показать сообщения:    

Текущее время: Сегодня 08:58

Часовой пояс: GMT



Вы не можете начинать темы
Вы не можете отвечать на сообщения
Вы не можете редактировать свои сообщения
Вы не можете удалять свои сообщения
Вы не можете голосовать в опросах
Вы не можете прикреплять файлы к сообщениям
Вы не можете скачивать файлы