Рой / The Hive (2015) WEB-DL 720p | L2

 
Автор Сообщение

BOSS ®

Пол:

Стаж: 2 года 2 месяца

Сообщений: 3751

Откуда: ODESSA



Награды: 20 (Подробнее)

Mega Seeder 3 (Количество: 1) Top Seeder 4 (Количество: 1) Mega Releaser 3 (Количество: 1)
Торрент-статистика

Создавать темы 15-Окт-2015 18:00

[Цитировать]

Информация о фильме
Название: Рой
Оригинальное название: The Hive
Год выхода: 2015
Жанр: ужасы, триллер
Режиссер: Дэвид Яровески
В ролях: Гэбриел Бассо, Талита Бейтман, Стефен Блекхарт, Мэри Элизабет Бойлэн, Майк Эскамиллья, Велинда Годфри, Александра Гросси, Тодд Хантер, Ethan Krimsky, Маделайне Петш
О фильме: На школьные каникулы компания молодых людей устраивается в лагерь вожатыми. В разграл летнего отдыха рядом с их лагерем терпит крушение самолет, на борту которого перевозили какой-то неизвестный вирус, воздействующий на мозг человека особым образом.

Производство: США / Midnight Road Entertainment
Продолжительность: 01:33:09
Озвучивание: Любительское (двухголосое) [den904 & DeadSno], перевод [dsa69]

Файл
Формат: MKV
Качество: WEB-DL 720p
Видео: 3804 kb/s, 1280x572
Аудио: Russian: AC3, 192 kb/s (2 ch) / English: AC3, 384 kb/s (6 ch)

MI

Format : Matroska
Format version : Version 2
File size : 2.91 GiB
Duration : 1h 33mn
Overall bit rate : 4 469 Kbps
Encoded date : UTC 2015-10-15 17:10:44
Writing application : mkvmerge v7.8.0 ('River Man') 32bit built on Apr 3 2015 12:11:22
Writing library : libebml v1.3.1 + libmatroska v1.4.2
Video
ID : 1
Format : AVC
Format/Info : Advanced Video Codec
Format profile : High@L3.1
Format settings, CABAC : No
Format settings, ReFrames : 2 frames
Codec ID : V_MPEG4/ISO/AVC
Duration : 1h 33mn
Bit rate : 3 804 Kbps
Width : 1 280 pixels
Height : 572 pixels
Display aspect ratio : 2.25:1
Frame rate mode : Constant
Frame rate : 23.976 fps
Color space : YUV
Chroma subsampling : 4:2:0
Bit depth : 8 bits
Scan type : Progressive
Bits/(Pixel*Frame) : 0.217
Stream size : 2.48 GiB (85%)
Language : English
Default : Yes
Forced : No
Color range : Limited
Color primaries : BT.709
Transfer characteristics : BT.709
Matrix coefficients : BT.709
Audio #1
ID : 2
Format : AC-3
Format/Info : Audio Coding 3
Mode extension : CM (complete main)
Format settings, Endianness : Big
Codec ID : A_AC3
Duration : 1h 33mn
Bit rate mode : Constant
Bit rate : 192 Kbps
Channel(s) : 2 channels
Channel positions : Front: L R
Sampling rate : 48.0 KHz
Bit depth : 16 bits
Compression mode : Lossy
Stream size : 128 MiB (4%)
Language : Russian
Default : Yes
Forced : No
Audio #2
ID : 3
Format : AC-3
Format/Info : Audio Coding 3
Mode extension : CM (complete main)
Format settings, Endianness : Big
Codec ID : A_AC3
Duration : 1h 33mn
Bit rate mode : Constant
Bit rate : 384 Kbps
Channel(s) : 6 channels
Channel positions : Front: L C R, Side: L R, LFE
Sampling rate : 48.0 KHz
Bit depth : 16 bits
Compression mode : Lossy
Stream size : 256 MiB (9%)
Language : English
Default : No
Forced : No
Menu
00:00:00.000 : en:Opening Sequence
00:06:09.000 : en:Get Away
00:12:03.000 : en:I Can't Remember
00:17:58.000 : en:Apology Doodle
00:25:05.000 : en:Anyone There
00:31:25.000 : en:Any Idea
00:37:08.000 : en:Help Me Out
00:42:10.000 : en:Look At Me
00:47:23.000 : en:This Is An Emergency
00:55:06.000 : en:Won't Make It
01:00:17.000 : en:The Truth Is
01:06:20.000 : en:When Do I Begin
01:11:57.000 : en:We're Waiting
01:19:23.000 : en:No Memories At All
01:23:56.000 : en:You Don't Understand
01:28:56.000 : en:End Credits

Скриншоты

[Профиль] [ЛС]
Показать сообщения:    

Текущее время: Сегодня 04:31

Часовой пояс: GMT



Вы не можете начинать темы
Вы не можете отвечать на сообщения
Вы не можете редактировать свои сообщения
Вы не можете удалять свои сообщения
Вы не можете голосовать в опросах
Вы не можете прикреплять файлы к сообщениям
Вы не можете скачивать файлы