Розовая пантера 2 / The Pink Panther 2 (Харольд Цварт / Harald Zwart) [2009 г., США, комедия, криминал, детектив, BDRip] Dub + Dub (Ukr) + Original (Eng) + Subs (Rus, Ukr, Eng)

 
Автор Сообщение

TorrentFilm ®

Пол:

Стаж: 2 года

Сообщений: 7741



Награды: Нет

Торрент-статистика

Создавать темы 26-Янв-2015 00:00

[Цитировать]

Розовая пантера 2 / The Pink Panther 2-«Даже лучшие детективы мира не справятся без него»-
Год выпуска: 2009
Страна: США
Жанр: комедия, криминал, детектив, приключения
Продолжительность: 01:32:01
Перевод: Профессиональный (полное дублирование) Blu-ray CEE + Украинский (полное дублирование) Blu-ray CEE – отдельно + Оригинальная звуковая дорожка – отдельно
Субтитры: Русские, Украинские, Английские (*.srt)-Режиссер: Харольд Цварт / Harald Zwart-В ролях: Стив Мартин (Clouseau), Жан Рено (Ponton), Эмили Мортимер (Nicole), Энди Гарсиа (Vicenzo), Альфред Молина (Pepperidge), Юки Мацудзаки (Kenji), Айшвария Рай (Sonia), Джон Клиз (Dreyfus), Лили Томлин (Mrs. Berenger), Джереми Айронс (Avellaneda), Джонни Халлидей (Milliken), Джеффри Палмер (Joubert)-Описание: Успех предыдущей миссии Жака Клюзо позволил инспектору-катастрофе занять место среди лучших детективов мира. В этот раз ему предстоит поймать международного преступника, похищающего исторические ценности, и снова вернуть «Розовую пантеру» на место.-Автор рипа: Mr. Eko- -Качество: BDRip (Исходник: /Blu-ray CEE/1080p)
Формат: AVI
Видео: 704x384 (1.83:1), 23.976 fps, XviD build 66 ~1804 kbps avg, 0.28 bit/pixel
Аудио #1: 48 kHz, AC3 Dolby Digital, 3/2 (L,C,R,l,r) + LFE ch, ~448 kbps |DUB, Blu-ray CEE|
Аудио #2: 48 kHz, AC3 Dolby Digital, 3/2 (L,C,R,l,r) + LFE ch, ~448 kbps |DUB, UKR – Blu-ray CEE| (отдельным файлом)
Аудио #3: 48 kHz, AC3 Dolby Digital, 3/2 (L,C,R,l,r) + LFE ch, ~448 kbps |ENG| (отдельным файлом)
Размер: 1489.20 Mb (1/3 DVD5)
-

Знаете ли Вы, что...

  • Роль Сонии Соландрес могла сыграть индийская актриса Бипаша Басу, однако отказалась от проекта.

-

MediaInfo

General
Complete name                            : C:\Downloads\Rozovaya.Pantera.2.2009.RUS.BDRip.XviD.AC3.-Mr.Eko\Rozovaya.Pantera.2.2009.RUS.BDRip.XviD.AC3.-Mr.Eko.avi
Format                                   : AVI
Format/Info                              : Audio Video Interleave
File size                                : 1.45 GiB
Duration                                 : 1h 32mn
Overall bit rate                         : 2 262 Kbps
Movie name                               : Розовая пантера 2 / The Pink Panther 2 (2009)
Director                                 : Mr. Eko (Blu-ray CEE)
Writing application                      : VirtualDubMod 1.5.10.2 (build 2542/release)
Video
ID                                       : 0
Format                                   : MPEG-4 Visual
Format profile                           : Advanced Simple@L5
Format settings, BVOP                    : 2
Format settings, QPel                    : No
Format settings, GMC                     : No warppoints
Format settings, Matrix                  : Custom
Codec ID                                 : XVID
Codec ID/Hint                            : XviD
Duration                                 : 1h 32mn
Bit rate                                 : 1 805 Kbps
Width                                    : 704 pixels
Height                                   : 384 pixels
Display aspect ratio                     : 1.85:1
Frame rate                               : 23.976 fps
Color space                              : YUV
Chroma subsampling                       : 4:2:0
Bit depth                                : 8 bits
Scan type                                : Progressive
Compression mode                         : Lossy
Bits/(Pixel*Frame)                       : 0.278
Stream size                              : 1.16 GiB (80%)
Writing library                          : XviD 66
Audio
ID                                       : 1
Format                                   : AC-3
Format/Info                              : Audio Coding 3
Mode extension                           : CM (complete main)
Format settings, Endianness              : Big
Codec ID                                 : 2000
Duration                                 : 1h 32mn
Bit rate mode                            : Constant
Bit rate                                 : 448 Kbps
Channel(s)                               : 6 channels
Channel positions                        : Front: L C R, Side: L R, LFE
Sampling rate                            : 48.0 KHz
Bit depth                                : 16 bits
Compression mode                         : Lossy
Stream size                              : 295 MiB (20%)
Alignment                                : Split accross interleaves
Interleave, duration                     : 42 ms (1.00 video frame)
Interleave, preload duration             : 500 ms
Title                                    : Dub [Rus] Blu-ray CEE

-

Сравнение

Сравнение с этой раздачей.

-

Скриншот c названием фильма


-

Скриншоты


-
[Профиль] [ЛС]

Создавать темы 06-Авг-2015 22:47 (спустя 6 месяцев 11 дней)

Топик был перенесен из форума Фильмы до 2014 года в форум Фильмы до 2012 года
sergej644
 

Создавать темы 12-Июн-2016 08:48 (спустя 1 год 4 месяца)

Топик был перенесен из форума Фильмы 2011 года в форум Фильмы 2009 года
Russian Mafia
 
Кто просматривает тему:

Форум Тема Автор Размер
Зарубежные мультсериалы Барби: Балерина в розовых пуантах / Barbie in The Pink Shoes (2013) BDRip 720p sergej644 2.13 GB
Фильмы 2015 года Вечная жизнь / Das ewige Leben (Вольфганг Мернбергер / Wolfgang Murnberger) [2015, Австрия, триллер, комедия, криминал, HDRip] VO (Павел Морозов) TorrentFilm 1.46 GB
Фильмы (HD Rips | 720p, 1080p) Жизнь в розовом цвете / La Vie en Rose / La môme (2007) BDRip 720p от Leonardo and Scarabey sergej644 4.74 GB
R.G.TorrentFilm Video Забытое / 4Got10 (Тимоти Вудворд мл. / Timothy Woodward Jr.) [2015 г., Боевик, триллер, вестерн, HDRip] VO (Павел Морозов) Один 777 717 MB
Фильмы 2015 года Забытое / 4Got10 (Тимоти Вудворд мл. / Timothy Woodward Jr.) [2015, США, боевик, триллер, вестерн, HDRip] VO (Павел Морозов) TorrentFilm 1.42 GB
Фильмы 2014 года Красный и розовый / Aka x Pinku / Girl's Blood (2014) HDRip | L1 BOSS 1.46 GB
Отечественные мультфильмы Кто я такой? (Владимир Морозов) [1977, СССР, Рисованный мультфильм, WEBRip] TorrentFilm 95 MB
Фильмы (HD Rips | 720p, 1080p) Москва - Лопушки (Юрий Морозов) [2014, Россия, мелодрама, комедия, HDTV 1080i] TorrentFilm 5.34 GB
Показать сообщения:    

Текущее время: Сегодня 18:30

Часовой пояс: GMT



Вы не можете начинать темы
Вы не можете отвечать на сообщения
Вы не можете редактировать свои сообщения
Вы не можете удалять свои сообщения
Вы не можете голосовать в опросах
Вы не можете прикреплять файлы к сообщениям
Вы не можете скачивать файлы