Рождество / This Christmas (Престон А. Витмор II / Preston A. Whitmore II) [2007, США, комедия, мелодрама, драма, HDRip] MVO

 
Автор Сообщение

TorrentFilm ®

Пол:

Стаж: 2 года

Сообщений: 7741



Награды: Нет

Торрент-статистика

Создавать темы 15-Янв-2015 00:00

[Цитировать]

Рождество / This Christmas«You can't exchange family»- Год выпуска: 2007
Жанр: комедия, мелодрама, драма
Страна: США
Продолжительность: 01:58:53
Перевод: Профессиональный (многоголосый, закадровый)
Субтитры: нет-Режиссёр: Престон А. Витмор II / Preston A. Whitmore II-В ролях: Делрой Линдо, Идрис Эльба, Лоретта Дивайн, Крис Браун, Кит Робинсон, Лас Алонсо, Коламбус Шорт, Шэрон Лил, Лорен Лондон, Лупе Онтиверос, Джессика Строуп, Мекхай Файфер, Реджина Кинг, Дэвид Баннер, Рики Харрис, Ронни Уорнер, Хэскелл В. Андерсон III, Амброзия Келли, Эми Хантер, Стэйси Медоуз, Брэндон Фоббс, Марк Сатин, Авива Джун, Николас Харвелл, Брэндон Т. Джексон, Гарри Гверрир, Мирта Мишель-Описание: Впервые за несколько лет все детки семейства Витфилд собираются дома, чтобы провести рождественские каникулы вместе с любимой мамочкой и ее бой-френдом Джо. И каждый из них привозит с собой неимоверное количество багажа. Когда же яркие гирлянды развешены, праздничные огни осветили дом, и рождественское убранство разместилось на елке, тут-то и открывается секрет неожиданного сплочения.- -Сэмпл: http://multi-up.com/1022299-Качество: HDRip [исх. BDRip / 1080p / кинозал]
Формат: AVI
Видео: 720x304 (2.37:1), 23.976 fps, XviD build 73 ~1299 kbps avg, 0.25 bit/pixel
Аудио: 48 kHz, AC3 Dolby Digital, 3/2 (L,C,R,l,r) + LFE ch, ~448.00 kbps avg
-

Media Info

Format                      : AVI
Format/Info                 : Audio Video Interleave
File size                   : 1.46 GiB
Duration                    : 1h 58mn
Overall bit rate            : 1 756 Kbps
Writing application         : VirtualDubMod 1.5.10.3 | www.virtualdub-fr.org || (build 2550/release)
Writing library             : VirtualDubMod build 2550/release
Video
ID                          : 0
Format                      : MPEG-4 Visual
Format profile              : Advanced Simple@L5
Format settings, BVOP       : 1
Format settings, QPel       : No
Format settings, GMC        : No warppoints
Format settings, Matrix     : Custom
Codec ID                    : XVID
Codec ID/Hint               : XviD
Duration                    : 1h 58mn
Bit rate                    : 1 299 Kbps
Width                       : 720 pixels
Height                      : 304 pixels
Display aspect ratio        : 2.35:1
Frame rate                  : 23.976 fps
Color space                 : YUV
Chroma subsampling          : 4:2:0
Bit depth                   : 8 bits
Scan type                   : Progressive
Compression mode            : Lossy
Bits/(Pixel*Frame)          : 0.247
Stream size                 : 1.08 GiB (74%)
Writing library             : XviD 73
Audio
ID                          : 1
Format                      : AC-3
Format/Info                 : Audio Coding 3
Mode extension              : CM (complete main)
Format settings, Endianness : Big
Codec ID                    : 2000
Duration                    : 1h 58mn
Bit rate mode               : Constant
Bit rate                    : 448 Kbps
Channel(s)                  : 6 channels
Channel positions           : Front: L C R, Side: L R, LFE
Sampling rate               : 48.0 KHz
Bit depth                   : 16 bits
Compression mode            : Lossy
Stream size                 : 381 MiB (26%)
Alignment                   : Split accross interleaves
Interleave, duration        : 42 ms (1.00 video frame)
Interleave, preload duratio : 500 ms

Скриншоты

[Профиль] [ЛС]

Создавать темы 06-Авг-2015 22:48 (спустя 6 месяцев 22 дня)

Топик был перенесен из форума Фильмы до 2014 года в форум Фильмы до 2012 года
sergej644
 
Показать сообщения:    

Текущее время: Сегодня 03:24

Часовой пояс: GMT



Вы не можете начинать темы
Вы не можете отвечать на сообщения
Вы не можете редактировать свои сообщения
Вы не можете удалять свои сообщения
Вы не можете голосовать в опросах
Вы не можете прикреплять файлы к сообщениям
Вы не можете скачивать файлы