Рождество / This Christmas (2007) HDRip

 
Автор Сообщение

sergej644 ®

Пол:

Стаж: 4 года 11 месяцев

Сообщений: 6046

Откуда: Soviet Union



Награды: Нет

Торрент-статистика

Создавать темы 07-Янв-2015 19:42

[Цитировать]

-Рождество / This Christmas (2007) HDRip-Год выпуска: 2007
Производство: США
Жанр: Комедия, драма, мелодрама
Режиссер: Престон А. Витмор II
Актеры: Делрой Линдо, Идрис Эльба, Лоретта Дивайн, Крис Браун, Кейт Робинсон, Лаз Алонсо, Коламбус Шорт, Шэрон Лил, Лоурен Лондон, Люпе Онтиверос, Джессика Строуп, Мехи Файфер, Реджина Кинг, Дэвид Баннер, Рики Харрис, Ронни Уорнер, Хэскелл В. Андерсон III, Амброзия Келли, Эми Хантер, Стэйси Медоуз, Брэндон Фоббс, Марк Сатин, Николас Харвелл, Брэндон Т. Джексон
Описание фильма:
Впервые за несколько лет все детки семейства Витфилд собираются дома, чтобы провести рождественские каникулы вместе с любимой мамочкой и ее бой-френдом Джо. И каждый из них привозит с собой неимоверное количество багажа. Когда же яркие гирлянды развешены, праздничные огни осветили дом, и рождественское убранство разместилось на елке, тут-то и открывается секрет неожиданного сплочения.
Перевод: Профессиональный многоголосый
Субтитры: Отсутствуют

Продолжительность: 01:58:53
Качество видео: HDRip
Видеокодек: XviD
Битрейт видео: ~1299 Кбит/с
Размер кадра: 720x304
Аудиокодек: AC3 6 ch
Битрейт аудио: 448 Кбит/с

MediaInfo:

Общее
Полное имя : C:\NNM\Рождество\Rozhdestvo 2007 HDRip.avi
Формат : AVI
Формат/Информация : Audio Video Interleave
Размер файла : 1,46 Гбайт
Продолжительность : 1 ч. 58 м.
Общий поток : 1756 Кбит/сек
Программа кодирования : VirtualDubMod 1.5.10.3
Библиотека кодирования : VirtualDubMod build 2550/release
Видео
Идентификатор : 0
Формат : MPEG-4 Visual
Профиль формата : Advanced Simple@L5
Параметр BVOP формата : 1
Параметр QPel формата : Нет
Параметр GMC формата : Без точки перехода
Параметр матрицы формата : Выборочная
Идентификатор кодека : XVID
Идентификатор кодека/Подсказка : XviD
Продолжительность : 1 ч. 58 м.
Битрейт : 1299 Кбит/сек
Ширина : 720 пикселей
Высота : 304 пикселя
Соотношение сторон : 2,35:1
Частота кадров : 23,976 кадра/сек
Цветовое пространство : YUV
Субдискретизация насыщенности : 4:2:0
Битовая глубина : 8 бит
Тип развёртки : Прогрессивная
Метод сжатия : С потерями
Бит/(Пиксели*Кадры) : 0.247
Размер потока : 1,08 Гбайт (74%)
Библиотека кодирования : XviD 73
Аудио
Идентификатор : 1
Формат : AC-3
Формат/Информация : Audio Coding 3
Расширение режима : CM (complete main)
Идентификатор кодека : 2000
Продолжительность : 1 ч. 58 м.
Вид битрейта : Постоянный
Битрейт : 448 Кбит/сек
Каналы : 6 каналов
Расположение каналов : Front: L C R, Side: L R, LFE
Частота : 48,0 КГц
Битовая глубина : 16 бит
Метод сжатия : С потерями
Размер потока : 381 Мбайт (26%)
Выравнивание : Разделение по промежуткам
Продолжительность промежутка : 42 мс. (1,00 видеокадр)
Время предзагрузки промежутка : 500 мс.
Скриншоты:
Время раздачи:Круглосуточно до 10 скачавших
[Профиль] [ЛС]

Создавать темы 06-Авг-2015 22:50 (спустя 6 месяцев 30 дней)

Топик был перенесен из форума Фильмы до 2014 года в форум Фильмы до 2012 года
sergej644
 
Показать сообщения:    

Текущее время: Сегодня 13:51

Часовой пояс: GMT



Вы не можете начинать темы
Вы не можете отвечать на сообщения
Вы не можете редактировать свои сообщения
Вы не можете удалять свои сообщения
Вы не можете голосовать в опросах
Вы не можете прикреплять файлы к сообщениям
Вы не можете скачивать файлы