Рождество Христово. Прямая трансляция из Храма Христа Спасителя [2015, Богослужение, HDTV 1080i]

 
Автор Сообщение

TorrentFilm ®

Пол:

Стаж: 2 года

Сообщений: 7741



Награды: Нет

Торрент-статистика

Создавать темы 08-Янв-2015 00:15

[Цитировать]

Рождество Христово. Прямая трансляция из Храма Христа Спасителя
Год выпуска: 2015
Страна: Россия
Студия: Первый канал
Жанр: Богослужение
Продолжительность: 02:21:45
Перевод: Не требуется
Русские субтитры: нет
Описание: В кафедральном соборе Русской православной церкви - московском храме Христа Спасителя - в 23:00 по московскому времени началось ночное торжественное богослужение, посвященное великому празднику Рождества Христова. Впервые вся рождественская служба, согласно указу патриарха, проходит с открытыми Царскими вратами, что символизирует открытость слова Божьего для всех. К началу службы в храме собрались около пяти тысяч человек. Многие еще стоят в очереди на вход. У храма установлена праздничная рождественская елка с хрустальными фигурами ангелов. В центре собора под хвойной сенью с белыми лилиями и хризантемами - праздничная икона на евангельский сюжет. Оригинал этой иконы находится в Вифлееме, где тоже совершается праздничное богослужение. Храм Христа Спасителя, построенный на народные средства в честь победы в Отечественной войне 1812 года, посвящен именно празднику Рождества Христова, так как в этот праздничный день, 25 декабря по старому стилю, последний наполеоновский солдат покинул пределы России.
Внимание! В записи присутствует небольшой брак.
Доп. информация: Релиз -

Рип чистый. Без посторонних надписей. Выкладывается как есть.
Качество: HDTV 1080i
Контейнер: TS
Видео кодек: AVC
Аудио кодек: MP2, AC3
Видео: 1920x1080 (16:9) 25.000 fps ~ 8 639 Kbps, 0.167 bit/pixel
Аудио 1: MPEG Audio 48000Hz stereo 224 Кбит/сек
Аудио 2: AC3, 6 channels, 48000Hz, 384 Кбит/сек

Скриншоты


Скринлист

MI

GeneralID : 1 (0x1)Complete name : E:\Рождество Христово. Прямая трансляция из Храма Христа Спасителя (2015, Богослужение, HDTV 1080i) (MYDIMKA).tsFormat : MPEG-TSFile size : 9.64 GiBDuration : 2h 21mnOverall bit rate mode : VariableOverall bit rate : 9 734 Kbps
VideoID : 1902 (0x76E)Menu ID : 1 (0x1)Format : AVCFormat/Info : Advanced Video CodecFormat profile : High@L4.0Format settings, CABAC : YesFormat settings, ReFrames : 3 framesCodec ID : 27Duration : 2h 21mnBit rate : 8 639 KbpsWidth : 1 920 pixelsHeight : 1 080 pixelsDisplay aspect ratio : 16:9Frame rate : 25.000 fpsStandard : ComponentColor space : YUVChroma subsampling : 4:2:0Bit depth : 8 bitsScan type : InterlacedScan order : Top Field FirstBits/(Pixel*Frame) : 0.167Stream size : 8.55 GiB (89%)Color primaries : BT.709Transfer characteristics : BT.709Matrix coefficients : BT.709
Audio #1ID : 2902 (0xB56)Menu ID : 1 (0x1)Format : MPEG AudioFormat version : Version 1Format profile : Layer 2Codec ID : 3Duration : 2h 21mnBit rate mode : ConstantBit rate : 224 KbpsChannel(s) : 2 channelsSampling rate : 48.0 KHzCompression mode : LossyStream size : 227 MiB (2%)Language : Russian
Audio #2ID : 3902 (0xF3E)Menu ID : 1 (0x1)Format : AC-3Format/Info : Audio Coding 3Mode extension : CM (complete main)Format settings, Endianness : BigCodec ID : 6Duration : 2h 21mnBit rate mode : ConstantBit rate : 384 KbpsChannel(s) : 6 channelsChannel positions : Front: L C R, Side: L R, LFESampling rate : 48.0 KHzBit depth : 16 bitsCompression mode : LossyStream size : 389 MiB (4%)Language : Russian
[Профиль] [ЛС]
Показать сообщения:    

Текущее время: Сегодня 18:36

Часовой пояс: GMT



Вы не можете начинать темы
Вы не можете отвечать на сообщения
Вы не можете редактировать свои сообщения
Вы не можете удалять свои сообщения
Вы не можете голосовать в опросах
Вы не можете прикреплять файлы к сообщениям
Вы не можете скачивать файлы