Рождественская сказка / Різдвяна казка (Анатолий Трифонов / Анатолій Трифонов) [1993 г., мультфильм, DVB]

 
Автор Сообщение

TorrentFilm ®

Пол:

Стаж: 1 год 11 месяцев

Сообщений: 7741



Награды: Нет

Торрент-статистика

Создавать темы 16-Май-2015 00:03

[Цитировать]

Рождественская сказка / Різдвяна казка
Страна: Украина
Жанр: мультфильм
Год выпуска: 1993
Продолжительность: 00:15:23
Режиссёр: Анатолий Трифонов / Анатолій Трифонов
Описание: мультфильм о том, как перед Рождеством слеза бедной девушки Маруси сделала равнодушное и холодное сердце богача теплее. ...
Доп. информация: по мотивам сказки Марко Черемши «Слеза».

Релиз группы:
Трансляция спутникового канала:

Качество видео: DVB
Формат видео: MPEG-PS
Видео: MPEG2 Video, 704x576@768x576 (4:3), анаморф, 25 fps, 2800 kbps
Аудио: Русский, MPEG Audio, 2 сh, 48 kHz, 192 Kbps

MediaInfo

D:\Рождественская сказка. (1993)_DVB by SLuMeP.mpg
General
Complete name : D:\Рождественская сказка. (1993)_DVB by SLuMeP.mpg
Format : MPEG-PS
File size : 331 MiB
Duration : 15mn 23s
Overall bit rate mode : Variable
Overall bit rate : 3 005 Kbps
Video #224
ID : 224 (0xE0)
Format : MPEG Video
Format version : Version 2
Format profile : Main@Main
Format settings, BVOP : Yes
Format settings, Matrix : Custom
Format settings, GOP : Variable
Duration : 15mn 23s
Bit rate mode : Variable
Bit rate : 2 753 Kbps
Maximum bit rate : 5 000 Kbps
Width : 704 pixels
Height : 576 pixels
Display aspect ratio : 4:3
Frame rate : 25.000 fps
Standard : PAL
Color space : YUV
Chroma subsampling : 4:2:0
Bit depth : 8 bits
Scan type : Interlaced
Scan order : Top Field First
Compression mode : Lossy
Bits/(Pixel*Frame) : 0.272
Time code of first frame : 00:00:00:00
Time code source : Group of pictures header
Stream size : 303 MiB (92%)
Audio #192
ID : 192 (0xC0)
Format : MPEG Audio
Format version : Version 1
Format profile : Layer 2
Duration : 15mn 23s
Bit rate mode : Constant
Bit rate : 192 Kbps
Channel(s) : 2 channels
Sampling rate : 48.0 KHz
Compression mode : Lossy
Stream size : 21.1 MiB (6%)

Скриншоты


[Профиль] [ЛС]
Показать сообщения:    

Текущее время: Сегодня 15:57

Часовой пояс: GMT



Вы не можете начинать темы
Вы не можете отвечать на сообщения
Вы не можете редактировать свои сообщения
Вы не можете удалять свои сообщения
Вы не можете голосовать в опросах
Вы не можете прикреплять файлы к сообщениям
Вы не можете скачивать файлы