Рождественская ночь в Барселоне / Barcelona, nit d'hivern (2015) WEB-DL 720p | iTunes

 
Автор Сообщение

BOSS ®

Пол:

Стаж: 2 года 1 месяц

Сообщений: 3719

Откуда: ODESSA



Награды: 20 (Подробнее)

Top Keeper 1 (Количество: 1) Mega Seeder 5 (Количество: 1) Mega Releaser 1 (Количество: 1)
Торрент-статистика

Создавать темы 09-Янв-2016 21:26

[Цитировать]

Информация о фильме
Название: Рождественская ночь в Барселоне
Оригинальное название: Barcelona, nit d'hivern
Год выхода: 2015
Жанр: мелодрама
Режиссер: Дани де ла Орден
В ролях: Виктория Луэнго, Алекс Маруни, Александра Хименес, Айна Клотет, Хосе Корбачо, Абель Фольк, Miki Esparbé, Альберто Сан Хуан, Берто Ромеро, Алекс Моннер
О фильме: Магия любовных переживаний царит в Барселоне не только в знойные летние ночи, но и в волшебную зимнюю пору. Семейные пары и одинокие сердца, юные романтики и почтенные сеньоры, загадочные красотки и парни «что надо» в разгар рождественских торжеств переживают радость и горечь любви, теряют и обретают свое счастье. Их истории складываются в картину увлекательной жизни прекрасного города, который в Рождественскую ночь живет в ожидании чуда.

Выпущено: Испания
Продолжительность: 01:44:41
Озвучивание: Дублированное [iTunes]
Файл
Формат: MKV
Качество: WEB-DL 720p
Видео: MPEG-4 AVC, 3933 kb/s, 1280x536
Аудио: AC3, 384 kb/s (6 ch)

MI

Format : Matroska
Format version : Version 4 / Version 2
File size : 3.22 GiB
Duration : 1h 44mn
Overall bit rate : 4 405 Kbps
Encoded date : UTC 2016-01-09 19:13:19
Writing application : mkvmerge v8.3.0 ('Over the Horizon') 64bit
Writing library : libebml v1.3.1 + libmatroska v1.4.2
Video
ID : 1
Format : AVC
Format/Info : Advanced Video Codec
Format profile : Main@L3.1
Format settings, CABAC : No
Format settings, ReFrames : 2 frames
Codec ID : V_MPEG4/ISO/AVC
Duration : 1h 44mn
Bit rate : 3 933 Kbps
Width : 1 280 pixels
Height : 536 pixels
Display aspect ratio : 2.40:1
Frame rate mode : Constant
Frame rate : 24.000 fps
Color space : YUV
Chroma subsampling : 4:2:0
Bit depth : 8 bits
Scan type : Progressive
Bits/(Pixel*Frame) : 0.239
Stream size : 2.88 GiB (89%)
Language : English
Default : Yes
Forced : No
Color range : Limited
Color primaries : BT.709
Transfer characteristics : BT.709
Matrix coefficients : BT.709
Audio
ID : 2
Format : AC-3
Format/Info : Audio Coding 3
Mode extension : CM (complete main)
Format settings, Endianness : Big
Codec ID : A_AC3
Duration : 1h 44mn
Bit rate mode : Constant
Bit rate : 384 Kbps
Channel(s) : 6 channels
Channel positions : Front: L C R, Side: L R, LFE
Sampling rate : 48.0 KHz
Bit depth : 16 bits
Compression mode : Lossy
Stream size : 288 MiB (9%)
Language : Russian
Default : Yes
Forced : No
Menu
00:00:00.000 : en:Глава 1
00:07:11.000 : en:Глава 2
00:14:52.000 : en:Глава 3
00:20:10.000 : en:Глава 4
00:26:18.000 : en:Глава 5
00:32:33.000 : en:Глава 6
00:37:54.000 : en:Глава 7
00:44:16.000 : en:Глава 8
00:49:44.000 : en:Глава 9
00:57:49.000 : en:Глава 10
01:03:38.000 : en:Глава 11
01:09:14.000 : en:Глава 12
01:16:15.000 : en:Глава 13
01:23:03.000 : en:Глава 14
01:28:06.000 : en:Глава 15
01:33:46.000 : en:Глава 16

Скриншоты

[Профиль] [ЛС]
Показать сообщения:    

Текущее время: Сегодня 18:43

Часовой пояс: GMT



Вы не можете начинать темы
Вы не можете отвечать на сообщения
Вы не можете редактировать свои сообщения
Вы не можете удалять свои сообщения
Вы не можете голосовать в опросах
Вы не можете прикреплять файлы к сообщениям
Вы не можете скачивать файлы