Рожденный побеждать / Неустрашимый Раджа / Pokkiri Raja (Вишакх / Vyshakh) [2010, Индия, Боевик, драма, HDRip] MVO (Red Media)

 
Автор Сообщение

TorrentFilm ®

Пол:

Стаж: 2 года

Сообщений: 7741



Награды: Нет

Торрент-статистика

Создавать темы 25-Авг-2015 00:11

[Цитировать]

Рожденный побеждать / Pokkiri Raja
Страна: Индия
Жанр: Боевик, драма
Год выпуска: 2010
Продолжительность: 02:43:32-Перевод: Профессиональный (многоголосый, закадровый) - Red Media (т/к Индия ТВ)
Cубтитры: Нет-Режиссер: Вишакх / Vyshakh-В ролях: Притхвирадж, Шрия Саран, Маммутти, Недумуди Вену, Сиддик, Сурадж Венджарамуд, Салим Кумар-Описание: Все началось в одной южной деревеньке 26 лет назад. Никак не могли две семьи поделить право на проведение праздника богини Деви. Для одной семьи этот праздник священная традиция, а для другой способ заработать денег. Тогда-то и произошел этот несчастный случай, сделавший нашего героя изгоем в своей деревне, в своей семье. Да, сегодня он бандит, но у него большое сердце и добрая душа. Поэтому он Неустрашимый Раджа, рожденный побеждать...- | --Качество видео: HDRip
Формат видео: AVI-Видео: 672x288 (2.33:1), 24.000 fps, XviD build 50 ~1139 kbps avg, 0.25 bit/pixel
Аудио: 48 kHz, MPEG Layer 3, 2 ch, ~128.00 kbps
-
Сэмпл-Релиз:
Рип и синхрон. звука: soso4eg-

Скриншот с названием


-

Скриншоты


-

MI

General
Complete name F:\Rozhdennyi.Pobezhdat.2010.P.HDRip.XviD.BwTorrents-soso4eg.avi
Format : AVI
Format/Info : Audio Video Interleave
File size : 1.46 GiB
Duration : 2h 43mn
Overall bit rate : 1 277 Kbps
Movie name : Pokkiri.Raja.2010.P.HDRip.XviD.BwTorrents-soso4eg.avi
Writing application : VirtualDubMod 1.5.10.2 (build 2540/release)
Video
ID : 0
Format : MPEG-4 Visual
Format profile : Advanced Simple@L5
Format settings, BVOP : 1
Format settings, QPel : No
Format settings, GMC : No warppoints
Format settings, Matrix : Default (MPEG)
Codec ID : XVID
Codec ID/Hint : XviD
Duration : 2h 43mn
Bit rate : 1 140 Kbps
Width : 672 pixels
Height : 288 pixels
Display aspect ratio : 2.35:1
Frame rate : 24.000 fps
Color space : YUV
Chroma subsampling : 4:2:0
Bit depth : 8 bits
Scan type : Progressive
Compression mode : Lossy
Bits/(Pixel*Frame) : 0.245
Stream size : 1.30 GiB (89%)
Writing library : XviD 1.2.1 (UTC 2008-12-04)
Audio
ID : 1
Format : MPEG Audio
Format version : Version 1
Format profile : Layer 3
Mode : Joint stereo
Mode extension : MS Stereo
Codec ID : 55
Codec ID/Hint : MP3
Duration : 2h 43mn
Bit rate mode : Constant
Bit rate : 128 Kbps
Channel(s) : 2 channels
Sampling rate : 48.0 KHz
Compression mode : Lossy
Stream size : 150 MiB (10%)
Alignment : Aligned on interleaves
Interleave, duration : 42 ms (1.00 video frame)
Interleave, preload duration : 504 ms
-
[Профиль] [ЛС]

Создавать темы 12-Июн-2016 07:53 (спустя 9 месяцев 18 дней)

Топик был перенесен из форума Фильмы 2011 года в форум Фильмы 2010 года
Russian Mafia
 
Показать сообщения:    

Текущее время: Сегодня 01:08

Часовой пояс: GMT



Вы не можете начинать темы
Вы не можете отвечать на сообщения
Вы не можете редактировать свои сообщения
Вы не можете удалять свои сообщения
Вы не можете голосовать в опросах
Вы не можете прикреплять файлы к сообщениям
Вы не можете скачивать файлы