Рождение Геракла (Юлиан Калишер) [1982, Кукольный мультфильм, WEBRip]

 
Автор Сообщение

painkiller ®

Стаж: 2 года 3 месяца

Сообщений: 582



Награды: Нет

Торрент-статистика

Создавать темы 27-Авг-2014 15:28

[Цитировать]

Рождение Геракла
Страна: СССР
Жанр: Кукольный мультфильм
Продолжительность: 00:08:33
Год выпуска: 1982
Русские субтитры: нет
Режиссёр: Юлиан Калишер
Описание: По мотивам древнегреческих мифов о подвигах Геракла
Доп. информация: ТО «Экран»
Сценарист: К.Кедров
Композитор:Н.Каретников
Оператор: Е.Туревич
РИП by ItarTass
Качество: WEBRip
Формат: AVI
Видео: 704x528 (1.33:1), 25 fps, XviD build 64 ~1114 kbps avg, 0.12 bit/pixel
Аудио: 32 kHz, MPEG Layer 3, 2 ch, ~96.00 kbps avg
Субтитры: нет

Подробные технические данные

Формат : AVIФормат/Информация : Audio Video InterleaveРазмер файла : 74,7 МбайтПродолжительность : 8 м. 33 с.Общий поток : 1221 Кбит/секПрограмма кодирования : VirtualDubModRus 1.5.10.2 (build 2542/release)Библиотека кодирования : VirtualDubMod build 2542/release
ВидеоИдентификатор : 0Формат : MPEG-4 VisualПрофиль формата : Advanced Simple@L5Параметр BVOP формата : 2Параметр QPel формата : НетПараметр GMC формата : Без точки переходаПараметр матрицы формата : ВыборочнаяИдентификатор кодека : XVIDИдентификатор кодека/Подсказка : XviDПродолжительность : 8 м. 33 с.Битрейт : 1115 Кбит/секШирина : 704 пикс.Высота : 528 пикс.Соотношение сторон : 4:3Частота кадров : 25,000 кадр/секЦветовое пространство : YUVПодвыборка цветности : 4:2:0Битовая глубина : 8 битТип развёртки : ПрогрессивнаяМетод сжатия : С потерямиБит/(Пиксели*Кадры) : 0.120Размер потока : 68,2 Мбайт (91%)Библиотека кодирования : XviD 64
АудиоИдентификатор : 1Формат : MPEG AudioВерсия формата : Version 1Профиль формата : Layer 3Идентификатор кодека : 55Идентификатор кодека/Подсказка : MP3Продолжительность : 8 м. 33 с.Вид битрейта : ПостоянныйБитрейт : 96,0 Кбит/секКанал(ы) : 2 канала(ов)Частота : 32,0 КГцМетод сжатия : С потерямиРазмер потока : 5,87 Мбайт (8%)Выравнивание : Соединение по промежуткамПродолжительность промежутка : 40 мс. (1,00 видеокадр)Время предзагрузки промежутка : 504 ms

Скриншоты

[Профиль] [ЛС]
Показать сообщения:    

Текущее время: Сегодня 06:25

Часовой пояс: GMT



Вы не можете начинать темы
Вы не можете отвечать на сообщения
Вы не можете редактировать свои сообщения
Вы не можете удалять свои сообщения
Вы не можете голосовать в опросах
Вы не можете прикреплять файлы к сообщениям
Вы не можете скачивать файлы