Родня (1981) HDTVRip

 
Автор Сообщение

BOSS ®

Пол:

Стаж: 2 года 1 месяц

Сообщений: 3744

Откуда: ODESSA



Награды: 20 (Подробнее)

Top Keeper 1 (Количество: 1) Top Releaser 2 (Количество: 1) Top Keeper 4 (Количество: 1)
Торрент-статистика

Создавать темы 03-Сен-2016 14:22

[Цитировать]

Информация о фильме
Название: Родня
Год выхода: 1981
Жанр: Драма
Режиссёр: Никита Михалков
В ролях: Нонна Мордюкова, Светлана Крючкова, Андрей Петров, Иван Бортник, Юрий Богатырев, Федор Стуков, Всеволод Ларионов, Никита Михалков, Александр Адабашьян, Павел Лебешев, Лариса Кузнецова, Олег Меньшиков
О фильме: Маруся, очень простая, грубоватая, но чрезвычайно душевная женщина из деревни, едет к дочери в город и знакомится в поезде с главным инженером рыбзавода, тоже немолодым, но очень добрым и милым человеком. В городе Маруся узнает, что дочь не любит мужа, с которым не живет, хотя и не развелась, не любит свою работу, на которую выучилась, чтобы только уехать из села, да и жизнь свою, похоже, не очень любит. Все это отрицательно сказывается на внучке. С пещерной непосредственностью и самыми лучшими намерениями Маруся пытается наладить семейные отношения дочери, дав ее мужу по морде. Она продолжает знакомство с работником рыбзавода, навещает своего окончательно спившегося мужа, которого в свое время выгнала из дома, пытается поправить и его судьбу. На фоне различных персонажей, встречающихся на пути Маруси, она демонстрирует дикую чистоту огромного сердца, шокируя окружающих, да и зрителя тоже. Действуя из самых добрых побуждений, она не в состоянии понять, почему ее вмешательство вызывает столь бурный протест...

Страна: СССР
Студия: Мосфильм
Продолжительность: 01:32:25
Перевод: Не требуется (оригинальный)
Файл
Формат: avi
Качество: HDTVRip (HDTV.1080i)
Видео: XviD, 640х464, 25fps, 988kbps
Аудио: MPEG Layer 3, 2ch, 48000Hz, 128kbps

MediaInfo

General
Complete name : Rodna.1981.O.HDTVRip.700.CurHaJI.avi
Format : AVI
Format/Info : Audio Video Interleave
File size : 744 MiB
Duration : 1h 32mn
Overall bit rate : 1 126 Kbps
Movie name : Rodna.1981.O.HDTVRip.700.CurHaJI
Writing application : VirtualDubMod 1.5.10.3 | www.virtualdub-fr.org || (build 2550/release)
Writing library : VirtualDub build 35491/release
Video
ID : 0
Format : MPEG-4 Visual
Format profile : Advanced Simple@L5
Format settings, BVOP : 2
Format settings, QPel : No
Format settings, GMC : No warppoints
Format settings, Matrix : Custom
Codec ID : XVID
Codec ID/Hint : XviD
Duration : 1h 32mn
Bit rate : 988 Kbps
Width : 640 pixels
Height : 464 pixels
Display aspect ratio : 1.379
Frame rate : 25.000 fps
Color space : YUV
Chroma subsampling : 4:2:0
Bit depth : 8 bits
Scan type : Progressive
Compression mode : Lossy
Bits/(Pixel*Frame) : 0.133
Stream size : 653 MiB (88%)
Writing library : XviD 73
Audio
ID : 1
Format : MPEG Audio
Format version : Version 1
Format profile : Layer 3
Codec ID : 55
Codec ID/Hint : MP3
Duration : 1h 32mn
Bit rate mode : Constant
Bit rate : 128 Kbps
Channel(s) : 2 channels
Sampling rate : 48.0 KHz
Compression mode : Lossy
Stream size : 84.6 MiB (11%)
Alignment : Aligned on interleaves
Interleave, duration : 40 ms (1.00 video frame)
Interleave, preload duration : 504 ms
Writing library : LAME3.99r
Encoding settings : -m s -V 4 -q 2 -lowpass 17 -b 128

Скриншоты

Релиз от:
[Профиль] [ЛС]
Кто просматривает тему:

Показать сообщения:    

Текущее время: Сегодня 13:50

Часовой пояс: GMT



Вы не можете начинать темы
Вы не можете отвечать на сообщения
Вы не можете редактировать свои сообщения
Вы не можете удалять свои сообщения
Вы не можете голосовать в опросах
Вы не можете прикреплять файлы к сообщениям
Вы не можете скачивать файлы