Родная кровиночка (Андрей Красавин) [2013, Россия, мелодрама, HDTVRip 720p]

 
Автор Сообщение

TorrentFilm ®

Пол:

Стаж: 1 год 11 месяцев

Сообщений: 7741



Награды: Нет

Торрент-статистика

Создавать темы 03-Янв-2016 00:05

[Цитировать]

Родная кровиночка
Страна: Россия
Жанр: мелодрама
Год выпуска: 2013
Продолжительность: 01:25:34
Субтитры: нет
Режиссер: Андрей Красавин
В ролях: Александр Михайлов, Дарья Михайлова, Макар Кравченко, Вероника Пляшкевич, Ольга Клебанович, Алла Пролич, Анжела Кораблева, Андрей Дробыш
Описание: Алевтина - жительница провинциального городка. Много лет назад она поссорилась с взрослой дочерью, и та сбежала от нее в другой город. Неожиданно Алевтине приходит телеграмма, в которой говорится о том, что ее дочь умерла. Она едет на похороны, и там выясняется, что дочь вместе с мужем погибла в автокатастрофе, что у них была образцовая семья, а их маленький сын Павлик находится в детдоме. Женщина хочет немедленно забрать внука...

Автор рипа / записи: fanatus
Качество видео: HDTVRip 720p
Исходник: Запись с телеканала РОССИЯ HD
Контейнер: MKV
Видео: MPEG-4 AVC, 3456 kbps , 1280x720 (16:9), 25.000 fps, 0.150 bit/pixel
Аудио: AC3, 2 ch, 48 kHz, 192 kbps
Торрент перезалит 24.09.2013, устранен рассинхрон.

MediaInfo

General
Unique ID : 253525180915404592758604248774533289422 (0xBEBB2C7B69758857BB327A4DDA1D95CE)
Complete name : E:\Rodnaja krovinochka.2013.x264.HDTVRip.720p.fanatus.mkv
Format : Matroska
Format version : Version 2
File size : 2.18 GiB
Duration : 1h 25mn
Overall bit rate : 3 649 Kbps
Movie name : Rodnaja krovinochka (2013) - fanatus
Encoded date : UTC 2013-09-24 03:04:06
Writing application : mkvmerge v3.4.0 ('Rapunzel') сборка от May 15 2010 09:38:20
Writing library : libebml v0.8.0 + libmatroska v0.9.0
Video
ID : 1
Format : AVC
Format/Info : Advanced Video Codec
Format profile : High@L4.1
Format settings, CABAC : Yes
Format settings, ReFrames : 9 frames
Codec ID : V_MPEG4/ISO/AVC
Duration : 1h 25mn
Bit rate : 3 456 Kbps
Width : 1 280 pixels
Height : 720 pixels
Display aspect ratio : 16:9
Frame rate : 25.000 fps
Color space : YUV
Chroma subsampling : 4:2:0
Bit depth : 8 bits
Scan type : Progressive
Bits/(Pixel*Frame) : 0.150
Stream size : 2.02 GiB (93%)
Title : Rodnaja krovinochka (2013)
Writing library : x264 core 138 r2358 9e941d1
Encoding settings : cabac=1 / ref=9 / deblock=1:-2:-2 / analyse=0x3:0x113 / me=umh / subme=10 / psy=1 / psy_rd=1.00:0.05 / mixed_ref=1 / me_range=32 / chroma_me=1 / trellis=2 / 8x8dct=1 / cqm=0 / deadzone=21,11 / fast_pskip=0 / chroma_qp_offset=-3 / threads=16 / lookahead_threads=2 / sliced_threads=0 / nr=0 / decimate=0 / interlaced=0 / bluray_compat=0 / constrained_intra=0 / bframes=9 / b_pyramid=2 / b_adapt=2 / b_bias=0 / direct=3 / weightb=1 / open_gop=0 / weightp=2 / keyint=250 / keyint_min=25 / scenecut=40 / intra_refresh=0 / rc=2pass / mbtree=0 / bitrate=3456 / ratetol=1.0 / qcomp=0.65 / qpmin=0 / qpmax=69 / qpstep=4 / cplxblur=20.0 / qblur=0.5 / ip_ratio=1.40 / pb_ratio=1.30 / aq=1:0.90
Language : Russian
Default : Yes
Forced : No
Matrix coefficients : BT.709-5, BT.1361, IEC 61966-2-4 709, SMPTE RP177
Audio
ID : 2
Format : AC-3
Format/Info : Audio Coding 3
Mode extension : CM (complete main)
Format settings, Endianness : Big
Codec ID : A_AC3
Duration : 1h 25mn
Bit rate mode : Constant
Bit rate : 192 Kbps
Channel(s) : 2 channels
Channel positions : Front: L R
Sampling rate : 48.0 KHz
Bit depth : 16 bits
Compression mode : Lossy
Stream size : 118 MiB (5%)
Language : Russian
Default : Yes
Forced : No

Скриншот c названием фильма

Скриншоты

[Профиль] [ЛС]
Кто просматривает тему:

Форум Тема Автор Размер
S.T.A.L.K.E.R. S.T.A.L.K.E.R. - Народная солянка - DMX MOD [Rus] [v 1.0004/ 1.3.5 / v0.4.5] [RePack] (2012-2014) reversefile 5.68 GB
Разная литература Генрих Ужегов - Официальная и народная медицина. Самая подробная энциклопедия [Медицина, Энциклопедии, Альтернативная медицина, 2011, FB2, TXT] Garik014 6 MB
Фильмы (HD Rips | 720p, 1080p) Плодородная почва / Fertile Ground (2010) ВDRip 720р | P Russian Mafia 3.73 GB
Фильмы 2011 года Плодородная почва / Fertile Ground (2011) HDRip | P, L1 Russian Mafia 1.46 GB
Фильмы 2014 года Пригородная готика / Suburban Gothic (2014) WEB-DLRip | L достали все 1.46 GB
Фильмы 2014 года Пригородная готика / Suburban Gothic (2014) НDRip | L BOSS 1.46 GB
R.G.TorrentFilm Video Природная инженерия: выживание в саванне / Animal Impact: Savannah (Рон Боуман / Ron Bowman) [2010 г., Документальный, флора, фауна, HDTVRip] VО ("АРТ-ТВ" Александр Гаврилин) Один 777 599 MB
Фильмы (HD Rips | 720p, 1080p) Родная кровиночка (Андрей Красавин) [2013, Россия, Мелодрама, HDTV 1080i] TorrentFilm 5.04 GB
Показать сообщения:    

Текущее время: Сегодня 05:00

Часовой пояс: GMT



Вы не можете начинать темы
Вы не можете отвечать на сообщения
Вы не можете редактировать свои сообщения
Вы не можете удалять свои сообщения
Вы не можете голосовать в опросах
Вы не можете прикреплять файлы к сообщениям
Вы не можете скачивать файлы