Родная кровиночка (Андрей Красавин) [2013, Россия, Мелодрама, HDTV 1080i]

 
Автор Сообщение

TorrentFilm ®

Пол:

Стаж: 2 года

Сообщений: 7741



Награды: Нет

Торрент-статистика

Создавать темы 01-Янв-2016 00:17

[Цитировать]

Родная кровиночка
Страна: Россия
Студия: "Медиапрофсоюз", ООО "Тесей Продакшн"
Жанр: Мелодрама
Год выпуска: 2013
Продолжительность: 01:25:33
Перевод: Не требуется
Cубтитры: нет
Режиссер: Андрей Красавин
В ролях: Александр Михайлов, Дарья Михайлова, Макар Кравченко, Вероника Пляшкевич, Ольга Клебанович, Алла Пролич, Анжела Кораблева, Андрей Дробыш и другие.
Описание: Алевтина – жительница провинциального городка. Много лет назад она поссорилась с взрослой дочерью, и та сбежала от нее в другой город. Неожиданно Алевтине приходит телеграмма, в которой говорится о том, что ее дочь умерла. Женщина едет на похороны, и тут выясняется, что дочь вместе с мужем погибла в автокатастрофе, что у них была образцовая семья, а их маленький сын Павлик находится в детдоме. Так Алевтина узнает, что она, оказывается, бабушка. Женщина хочет немедленно забрать внука. Собрав все необходимые документы, Алевтина едет за своей родной кровиночкой и выясняет, что Павлик - сын мужа ее дочери от первого брака, а значит, он ей вовсе не родной! После тяжелой внутренней борьбы, женщина преодолевает сомнения и все-таки решает забрать мальчика, ведь ее покойная дочь любила его, как собственного сына. Однако на пути Алевтины встает родной дедушка мальчика. Алевтина никак не ожидала, что этот одинокий, изрядно потрепанный жизнью пожилой мужчина решится на такой ответственный шаг – самому воспитывать внука, которого он впервые увидел только сейчас. Бабушка и дедушка вступают в жесткую борьбу. Каждый из них считает только себя достойным воспитывать Павлика. Ситуация усугубляется тем, что эти абсолютно чужие друг другу люди вынуждены жить под одной крышей. И как теперь сложится судьба мальчика, остается только гадать.
Сэмпл: http://multi-up.com/905881
Доп. информация: Релиз -

Рип чистый. Без посторонних надписей. Выкладывается как есть.
Качество: HDTV 1080i
Контейнер: TS
Видео кодек: AVC
Аудио кодек: MP2
Видео: 1920x1080 (16:9) 25.000 fps 7 858 Kbps, 0.152 bit/pixel
Аудио: MPEG Audio 48000Hz stereo 192 Кбит/сек

Скриншот с названием фильма

Скриншоты


MI

GeneralID : 1 (0x1)Complete name : D:\Выкладка\Родная кровиночка (2013, Мелодрама, HDTV 1080i) (MYDIMKA).tsFormat : MPEG-TSFile size : 5.04 GiBDuration : 1h 25mnOverall bit rate mode : VariableOverall bit rate : 8 435 Kbps
VideoID : 2911 (0xB5F)Menu ID : 1 (0x1)Format : AVCFormat/Info : Advanced Video CodecFormat profile : High@L4.0Format settings, CABAC : YesFormat settings, ReFrames : 3 framesFormat settings, GOP : M=3, N=30Codec ID : 27Duration : 1h 25mnBit rate : 7 824 KbpsWidth : 1 920 pixelsHeight : 1 080 pixelsDisplay aspect ratio : 16:9Frame rate : 25.000 fpsColor space : YUVChroma subsampling : 4:2:0Bit depth : 8 bitsScan type : MBAFFBits/(Pixel*Frame) : 0.151Stream size : 4.68 GiB (93%)
AudioID : 2912 (0xB60)Menu ID : 1 (0x1)Format : MPEG AudioFormat version : Version 1Format profile : Layer 2Codec ID : 3Duration : 1h 25mnBit rate mode : ConstantBit rate : 192 KbpsChannel count : 2 channelsSampling rate : 48.0 KHzCompression mode : LossyStream size : 118 MiB (2%)Language : Russian
[Профиль] [ЛС]
Кто просматривает тему:

Форум Тема Автор Размер
S.T.A.L.K.E.R. S.T.A.L.K.E.R. - Народная солянка - DMX MOD [Rus] [v 1.0004/ 1.3.5 / v0.4.5] [RePack] (2012-2014) reversefile 5.68 GB
Разная литература Генрих Ужегов - Официальная и народная медицина. Самая подробная энциклопедия [Медицина, Энциклопедии, Альтернативная медицина, 2011, FB2, TXT] Garik014 6 MB
Фильмы (HD Rips | 720p, 1080p) Плодородная почва / Fertile Ground (2010) ВDRip 720р | P Russian Mafia 3.73 GB
Фильмы 2011 года Плодородная почва / Fertile Ground (2011) HDRip | P, L1 Russian Mafia 1.46 GB
Фильмы 2014 года Пригородная готика / Suburban Gothic (2014) WEB-DLRip | L достали все 1.46 GB
Фильмы 2014 года Пригородная готика / Suburban Gothic (2014) НDRip | L BOSS 1.46 GB
R.G.TorrentFilm Video Природная инженерия: выживание в саванне / Animal Impact: Savannah (Рон Боуман / Ron Bowman) [2010 г., Документальный, флора, фауна, HDTVRip] VО ("АРТ-ТВ" Александр Гаврилин) Один 777 599 MB
Фильмы (HD Rips | 720p, 1080p) Родная кровиночка (Андрей Красавин) [2013, Россия, мелодрама, HDTVRip 720p] TorrentFilm 2.18 GB
Показать сообщения:    

Текущее время: Сегодня 02:24

Часовой пояс: GMT



Вы не можете начинать темы
Вы не можете отвечать на сообщения
Вы не можете редактировать свои сообщения
Вы не можете удалять свои сообщения
Вы не можете голосовать в опросах
Вы не можете прикреплять файлы к сообщениям
Вы не можете скачивать файлы