Рога / Horns (2013) BDRip 720p | Лицензия

 
Автор Сообщение

достали все ®

Пол:

Стаж: 1 год 8 месяцев

Сообщений: 6570



Награды: 12 (Подробнее)

Mega Seeder 4 (Количество: 1) Top Releaser 2 (Количество: 1) Top Releaser 4 (Количество: 1)
Торрент-статистика

Создавать темы 16-Дек-2015 10:12

[Цитировать]

Название: Рога
Оригинальное название: Horns
Год выпуска: 2013
Жанр: Ужасы, фэнтези, триллер, драма, экранизация
Выпущено: США, Канада, Red Granite Pictures, Mandalay Pictures
Режиссер: Александр Ажа
В ролях: Джуно Темпл, Дэниэл Рэдклифф, Хезер Грэм, Сабрина Карпентер, Келли Гарнер, Джо Андерсон, Макс Мингелла, Джеймс Римар, Дэвид Морс, Кэтлин Куинлен
О фильме: История простого американского парня по имени Иг Перриш, который просыпается рано утром с диким похмельем и обнаруживает, что у него на голове выросли настоящие рога. Вместе с рогами у героя появляется еще одно дьявольское качество: в присутствии Перриша люди начинают говорить то, что думают на самом деле, и все грязные секреты оказываются на поверхности. Теперь Иг может узнать, кто на самом деле убил его девушку, поскольку в этом преступлении обвиняют его самого, хоть и бездоказательно.

Качество: ВDRip 720р
Видео: MPEG-4 AVC, 6269 Кбит/с, 1280x536
Аудио: Русский (AC3, 6 ch, 448 Кбит/с), английский (AC3, 6 ch, 640 Кбит/c)
Продолжительность: 01:59:48
Перевод: Профессиональный многоголосый
Субтитры: Английские, испанские, вьетнамские

Скриншоты

MediaInfo

General
Unique ID : 189525923895033920061603258217656855243 (0x8E955D7E2FDCA9ABBE3DE985A619AACB)
Complete name : D:ВидеоROG1.2O13.P.BDRip.72Op.mkv
Format : Matroska
Format version : Version 2
File size : 6.28 GiB
Duration : 1h 59mn
Overall bit rate : 7 497 Kbps
Movie name : Horns.2013.720p.BluRay.DD5.1x264-VietHD
Encoded date : UTC 2015-12-15 12:32:37
Writing application : mkvmerge v8.3.0 ('Over the Horizon') 64bit
Writing library : libebml v1.3.1 + libmatroska v1.4.2
DURATION : 01:59:53.184000000
NUMBER_OF_FRAMES : 224787
NUMBER_OF_BYTES : 402818304
_STATISTICS_WRITING_APP : mkvmerge v8.3.0 ('Over the Horizon') 64bit
_STATISTICS_WRITING_DATE_UTC : 2015-12-15 12:32:37
_STATISTICS_TAGS : BPS DURATION NUMBER_OF_FRAMES NUMBER_OF_BYTES
Video
ID : 1
Format : AVC
Format/Info : Advanced Video Codec
Format profile : High@L4.1
Format settings, CABAC : Yes
Format settings, ReFrames : 12 frames
Codec ID : V_MPEG4/ISO/AVC
Duration : 1h 59mn
Bit rate : 6 260 Kbps
Width : 1 280 pixels
Height : 536 pixels
Display aspect ratio : 2.40:1
Original display aspect ratio : 2.40:1
Frame rate mode : Constant
Frame rate : 23.976 fps
Color space : YUV
Chroma subsampling : 4:2:0
Bit depth : 8 bits
Scan type : Progressive
Bits/(Pixel*Frame) : 0.381
Stream size : 5.24 GiB (83%)
Writing library : x264 core 142 r2431+42 c69a006 tMod [8-bit@all X86_64]
Encoding settings : cabac=1 / ref=12 / deblock=1:-3:-3 / analyse=0x3:0x133 / me=umh / subme=10 / psy=1 / fade_compensate=0.00 / psy_rd=1.00:0.00 / mixed_ref=1 / me_range=24 / chroma_me=1 / trellis=2 / 8x8dct=1 / cqm=0 / deadzone=21,11 / fast_pskip=1 / chroma_qp_offset=-2 / threads=12 / lookahead_threads=2 / sliced_threads=0 / nr=0 / decimate=1 / interlaced=0 / bluray_compat=0 / constrained_intra=0 / fgo=0 / bframes=8 / b_pyramid=2 / b_adapt=2 / b_bias=0 / direct=3 / weightb=1 / open_gop=0 / weightp=2 / keyint=250 / keyint_min=23 / scenecut=40 / intra_refresh=0 / rc=crf / mbtree=0 / crf=14.7000 / qcomp=0.65 / qpmin=0:0:0 / qpmax=69:69:69 / qpstep=4 / ip_ratio=1.30 / pb_ratio=1.20 / aq=4:0.85 / aq-sensitivity=10.00 / aq-factor=1.00:1.00:1.00 / aq2=0 / aq3=0
Language : English
Default : Yes
Forced : No
Matrix coefficients : BT.709
DURATION : 01:59:55.188000000
NUMBER_OF_FRAMES : 172512
NUMBER_OF_BYTES : 5762392879
_STATISTICS_WRITING_APP : mkvmerge v8.3.0 ('Over the Horizon') 64bit
_STATISTICS_WRITING_DATE_UTC : 2015-12-15 12:32:37
_STATISTICS_TAGS : BPS DURATION NUMBER_OF_FRAMES NUMBER_OF_BYTES
Audio #1
ID : 2
Format : AC-3
Format/Info : Audio Coding 3
Mode extension : CM (complete main)
Format settings, Endianness : Big
Codec ID : A_AC3
Duration : 1h 59mn
Bit rate mode : Constant
Bit rate : 448 Kbps
Channel(s) : 6 channels
Channel positions : Front: L C R, Side: L R, LFE
Sampling rate : 48.0 KHz
Bit depth : 16 bits
Compression mode : Lossy
Stream size : 384 MiB (6%)
Language : Russian
Default : Yes
Forced : No
Audio #2
ID : 3
Format : AC-3
Format/Info : Audio Coding 3
Mode extension : CM (complete main)
Format settings, Endianness : Big
Codec ID : A_AC3
Duration : 1h 59mn
Bit rate mode : Constant
Bit rate : 640 Kbps
Channel(s) : 6 channels
Channel positions : Front: L C R, Side: L R, LFE
Sampling rate : 48.0 KHz
Bit depth : 16 bits
Compression mode : Lossy
Stream size : 549 MiB (9%)
Language : English
Default : No
Forced : No
Text #1
ID : 4
Format : UTF-8
Codec ID : S_TEXT/UTF8
Codec ID/Info : UTF-8 Plain Text
Language : English
Default : No
Forced : No
Text #2
ID : 5
Format : UTF-8
Codec ID : S_TEXT/UTF8
Codec ID/Info : UTF-8 Plain Text
Language : English
Default : No
Forced : No
Text #3
ID : 6
Format : UTF-8
Codec ID : S_TEXT/UTF8
Codec ID/Info : UTF-8 Plain Text
Language : Spanish
Default : No
Forced : No
Text #4
ID : 7
Format : UTF-8
Codec ID : S_TEXT/UTF8
Codec ID/Info : UTF-8 Plain Text
Language : Vietnamese
Default : No
Forced : No
Menu
00:00:00.000 : en:00:00:00.000
00:05:01.551 : en:00:05:01.551
00:13:51.205 : en:00:13:51.205
00:18:19.640 : en:00:18:19.640
00:23:42.796 : en:00:23:42.796
00:29:14.169 : en:00:29:14.169
00:36:15.465 : en:00:36:15.465
00:43:39.659 : en:00:43:39.659
00:48:22.358 : en:00:48:22.358
00:53:12.981 : en:00:53:12.981
00:58:10.612 : en:00:58:10.612
01:05:06.111 : en:01:05:06.111
01:12:16.374 : en:01:12:16.374
01:15:58.179 : en:01:15:58.179
01:22:32.197 : en:01:22:32.197
01:26:56.795 : en:01:26:56.795
01:33:51.000 : en:01:33:51.000
01:38:29.195 : en:01:38:29.195
01:43:39.213 : en:01:43:39.213
01:54:02.127 : en:01:54:02.127
[Профиль] [ЛС]
Показать сообщения:    

Текущее время: Сегодня 10:46

Часовой пояс: GMT



Вы не можете начинать темы
Вы не можете отвечать на сообщения
Вы не можете редактировать свои сообщения
Вы не можете удалять свои сообщения
Вы не можете голосовать в опросах
Вы не можете прикреплять файлы к сообщениям
Вы не можете скачивать файлы