Ровер / The Rover (2014) BDRip 720p от ExKinoRay | Немахов, Матвеев

 
Автор Сообщение

sergej644 ®

Пол:

Стаж: 4 года 11 месяцев

Сообщений: 6045

Откуда: Soviet Union



Награды: Нет

Торрент-статистика

Создавать темы 08-Фев-2015 11:44

[Цитировать]

«Бойся человека, которому нечего терять»
Информация о фильме
Название: Ровер / Бродяга
Оригинальное название: The Rover
Год выпуска: 2014
Жанр: Драма, криминал
Выпущено: Австралия, США, Porchlight Films, Lava Bear Films, Blue-Tongue Films
Режиссер: Дэвид Мишо
В ролях: Гай Пирс, Чан Кьень, Роберт Паттинсон, Тек Конг Лим, Скут МакНэйри, Таванда Маниймо, Дэвид Филд, Скотт Перри, Ричард Грин, Бен Армер

Качество: BDRip (720p)
Видео: MPEG-4 AVC, 5732 Кбит/с, 1280x534, 23.976 кадр/с
Аудио: Русский, английский (DTS, 6 ch, 1509 Кбит/с)
Размер: 7.38 ГБ
Продолжительность: 01:42:53
Перевод: Авторский одноголосый
Субтитры: Русские, английские

Релиз

Rip by gogamel74 от ExKinoRay
Исходник - THE_ROVER_2014_HDCLUB_Blu-Ray_Remux_1080p
------------------------------------------------------------------------------------------------------
Аудио №1 - Русский, DTS, 48 KHz, 6 ch, 1509 kbps, 24 bit - (AVO - Ю.Немахов)
Аудио №2 - Русский, DTS, 48 KHz, 6 ch, 1509 kbps, 24 bit - (AVO - А.Матвеев)
Аудио №3 - Английский, DTS, 48 KHz, 6 ch, 1509 kbps, 24 bit - (Original)
Субтитры - Русские (Full), Английские (Full, SDH)
Сохранены оригинальные чаптеры (главы) как на Blu-Ray.
-------------------------------------------------------------------------------------------------------
Аудио дорожка №1-2 получены путем наложения чистых голосов на центр декодированного DTS-HD MA.
Перевод Юрия Немахова выполнен спонсорами ресурса e180 и пользователями HDclub - tambov68, Leopard2, shtift, PufPaf.
Перевод Алексея Матвеева - будулайроманов, работа со звуком - Переводман.
Всем ОГРОМНОЕ СПАСИБО!!!

Интересно

• Режиссер и сценарист фильма Дэвид Мишо изначально писал персонаж Эрика специально под Гая Пирса.
• Квентин Тарантино о фильме:
Завораживающее, фантастическое произведение.
Лучший пост-апокалиптический фильм со времен первого "Безумного Макса".
С помощью комбинации из двух сильных ударов (п.п. боксерская терминология) "Ровер" и "По волчьим законам" Давид Мишо доказывает, что он является самым бескомпромиссным режиссером своего поколения.

Ограничение

ВНИМАНИЕ! Присутствует ненормативная лексика!!!

Инфо-файл

Полное имя : Rover.2014.x264.BDRip.720p.gogamel74.ExKinoRay.mkv
Формат : Matroska
Версия формата : Version 4 / Version 2
Размер файла : 7,38 Гбайт
Продолжительность : 1 ч. 42 м.
Общий поток : 10,3 Мбит/сек
Название фильма : Rover.2014.x264.BDRip.720p.gogamel74.ExKinoRay
Дата кодирования : UTC 2014-09-14 18:05:56
Программа кодирования : mkvmerge v7.2.0 ('On Every Street') 64bit built on Sep 13 2014 15:52:10
Библиотека кодирования : libebml v1.3.0 + libmatroska v1.4.1
Attachements : CoverCommander.jpg
Видео
Идентификатор : 1
Формат : AVC
Формат/Информация : Advanced Video Codec
Профиль формата : High@L4.1
Параметр CABAC формата : Да
Параметр ReFrames формата : 12 кадров
Идентификатор кодека : V_MPEG4/ISO/AVC
Продолжительность : 1 ч. 42 м.
Битрейт : 5732 Кбит/сек
Ширина : 1280 пикселей
Высота : 534 пикселя
Соотношение сторон : 2,40:1
Режим частоты кадров : Постоянный
Частота кадров : 23,976 кадра/сек
Цветовое пространство : YUV
Субдискретизация насыщенности : 4:2:0
Битовая глубина : 8 бит
Тип развёртки : Прогрессивная
Бит/(Пиксели*Кадры) : 0.350
Размер потока : 3,98 Гбайт (54%)
Заголовок : Rover.2014.x264.BDRip.720p.gogamel74.ExKinoRay
Библиотека кодирования : x264 core 142 r2431 ac76440
Настройки программы : cabac=1 / ref=12 / deblock=1:-3:-3 / analyse=0x3:0x133 / me=umh / subme=11 / psy=1 / psy_rd=1.00:0.15 / mixed_ref=1 / me_range=32 / chroma_me=1 / trellis=2 / 8x8dct=1 / cqm=0 / deadzone=21,11 / fast_pskip=0 / chroma_qp_offset=-3 / threads=8 / lookahead_threads=2 / sliced_threads=0 / nr=0 / decimate=0 / interlaced=0 / bluray_compat=0 / constrained_intra=0 / bframes=10 / b_pyramid=2 / b_adapt=2 / b_bias=0 / direct=3 / weightb=1 / open_gop=0 / weightp=2 / keyint=240 / keyint_min=23 / scenecut=40 / intra_refresh=0 / rc_lookahead=60 / rc=2pass / mbtree=1 / bitrate=5732 / ratetol=1.0 / qcomp=0.70 / qpmin=0 / qpmax=69 / qpstep=4 / cplxblur=20.0 / qblur=0.5 / vbv_maxrate=50000 / vbv_bufsize=62500 / nal_hrd=none / filler=0 / ip_ratio=1.40 / aq=1:1.00
Язык : English
Default : Да
Forced : Да
Аудио #1
Идентификатор : 2
Формат : DTS
Формат/Информация : Digital Theater Systems
Режим : 16
Параметр Endianness формата : Big
Идентификатор кодека : A_DTS
Продолжительность : 1 ч. 42 м.
Вид битрейта : Постоянный
Битрейт : 1509 Кбит/сек
Каналы : 6 каналов
Расположение каналов : Front: L C R, Side: L R, LFE
Частота : 48,0 КГц
Битовая глубина : 24 бит
Метод сжатия : С потерями
Размер потока : 1,08 Гбайт (15%)
Заголовок : AVO - Nemahov
Язык : Russian
Default : Да
Forced : Да
Аудио #2
Идентификатор : 3
Формат : DTS
Формат/Информация : Digital Theater Systems
Режим : 16
Параметр Endianness формата : Big
Идентификатор кодека : A_DTS
Продолжительность : 1 ч. 42 м.
Вид битрейта : Постоянный
Битрейт : 1509 Кбит/сек
Каналы : 6 каналов
Расположение каналов : Front: L C R, Side: L R, LFE
Частота : 48,0 КГц
Битовая глубина : 24 бит
Метод сжатия : С потерями
Размер потока : 1,08 Гбайт (15%)
Заголовок : AVO - Matveev
Язык : Russian
Default : Нет
Forced : Нет
Аудио #3
Идентификатор : 4
Формат : DTS
Формат/Информация : Digital Theater Systems
Режим : 16
Параметр Endianness формата : Big
Идентификатор кодека : A_DTS
Продолжительность : 1 ч. 42 м.
Вид битрейта : Постоянный
Битрейт : 1509 Кбит/сек
Каналы : 6 каналов
Расположение каналов : Front: L C R, Side: L R, LFE
Частота : 48,0 КГц
Битовая глубина : 24 бит
Метод сжатия : С потерями
Размер потока : 1,08 Гбайт (15%)
Заголовок : Original
Язык : English
Default : Нет
Forced : Нет
Текст #1
Идентификатор : 5
Формат : UTF-8
Идентификатор кодека : S_TEXT/UTF8
Идентификатор кодека/Информация : UTF-8 Plain Text
Заголовок : Full
Язык : Russian
Default : Нет
Forced : Нет
Текст #2
Идентификатор : 6
Формат : UTF-8
Идентификатор кодека : S_TEXT/UTF8
Идентификатор кодека/Информация : UTF-8 Plain Text
Заголовок : Full
Язык : English
Default : Нет
Forced : Нет
Текст #3
Идентификатор : 7
Формат : UTF-8
Идентификатор кодека : S_TEXT/UTF8
Идентификатор кодека/Информация : UTF-8 Plain Text
Заголовок : SDH
Язык : English
Default : Нет
Forced : Нет
Меню
00:00:00.000 : en:Chapter 01
00:05:54.145 : en:Chapter 02
00:12:57.610 : en:Chapter 03
00:17:51.403 : en:Chapter 04
00:25:28.360 : en:Chapter 05
00:30:34.666 : en:Chapter 06
00:36:52.293 : en:Chapter 07
00:42:18.702 : en:Chapter 08
00:47:47.531 : en:Chapter 09
00:53:05.348 : en:Chapter 10
01:00:39.344 : en:Chapter 11
01:08:57.758 : en:Chapter 12
01:17:00.991 : en:Chapter 13
01:20:07.511 : en:Chapter 14
01:24:39.240 : en:Chapter 15
01:33:18.134 : en:Chapter 16

Скриншоты

--
[Профиль] [ЛС]
Показать сообщения:    

Текущее время: Сегодня 02:17

Часовой пояс: GMT



Вы не можете начинать темы
Вы не можете отвечать на сообщения
Вы не можете редактировать свои сообщения
Вы не можете удалять свои сообщения
Вы не можете голосовать в опросах
Вы не можете прикреплять файлы к сообщениям
Вы не можете скачивать файлы