Ровер / Бродяга / The Rover (2014) HDRip-AVC от ExKinoRay | P

 
Автор Сообщение

Белочка ®

Пол:

Стаж: 5 лет 1 месяц

Сообщений: 2089



Награды: 1 (Подробнее)

Girls (Количество: 1)
Торрент-статистика

Создавать темы 11-Окт-2014 16:10

[Цитировать]

Информация о фильме
Название: Ровер
Оригинальное название: The Rover
Год выпуска: 2014
Жанр: Драма, криминал
Выпущено: Австралия, США, Porchlight Films, Lava Bear Films, Blue-Tongue Films
Режиссер: Дэвид Мишо
В ролях: Гай Пирс, Чан Кьень, Роберт Паттинсон, Тек Конг Лим, Скут МакНэйри, Таванда Маниймо, Дэвид Филд, Скотт Перри, Ричард Грин, Бен Армер
О фильме: Главный герой преследует по дикой австралийской природе банду, угнавшую его автомобиль, и оказывается в ловушке. Современный вестерн в постапокалиптическом сеттинге, где есть преступление, и есть наказание, которое главный герой желает обрушить на головы своих обидчиков. И высшая философия, четко прописанная мотивация… какое это имеет значение в месте, где пистолет — это Бог и единственное, что он может даровать — это смерть.

Файл
Качество: HDRip (AVC)
Видео: MPEG-4 AVC, 1455 Кбит/с, 1024x426
Аудио: Русский (AС3, 2 ch, 384 Кбит/с), английский (AС3, 6 ch, 448 Кбит/с)
Продолжительность: 01:42:51
Перевод: Профессиональный (многоголосый) перевод- Официальная озвучка
Субтитры: Русские, английские

MI

General
Unique ID : 240938433644557117373164169663560522416 (0xB5430DEDE0C7C4C0907773BB403F9AB0)
Complete name : C:The.Rover.2014.P.HDRip.AVC.ExKinoRay.mkv
Format : Matroska
Format version : Version 2
File size : 1.64 GiB
Duration : 1h 42mn
Overall bit rate : 2 288 Kbps
Movie name : The Rover 2014 from ExKinoRay
Encoded date : UTC 2014-10-10 15:34:50
Writing application : mkvmerge v4.9.1 ('Ich will') built on Jul 11 2011 23:53:15
Writing library : libebml v1.2.1 + libmatroska v1.1.1
Video
ID : 1
Format : AVC
Format/Info : Advanced Video Codec
Format profile : High@L4.1
Format settings, CABAC : Yes
Format settings, ReFrames : 9 frames
Codec ID : V_MPEG4/ISO/AVC
Duration : 1h 42mn
Bit rate : 1 455 Kbps
Width : 1 024 pixels
Height : 426 pixels
Display aspect ratio : 2.40:1
Frame rate mode : Constant
Frame rate : 23.976 fps
Color space : YUV
Chroma subsampling : 4:2:0
Bit depth : 8 bits
Scan type : Progressive
Bits/(Pixel*Frame) : 0.139
Stream size : 1.01 GiB (62%)
Title : Enigma-Vladislav71
Writing library : x264 core 116 r2044 392e762
Encoding settings : cabac=1 / ref=9 / deblock=1:-2:-2 / analyse=0x3:0x113 / me=umh / subme=9 / psy=1 / psy_rd=1.00:0.20 / mixed_ref=1 / me_range=32 / chroma_me=1 / trellis=2 / 8x8dct=1 / cqm=0 / deadzone=21,11 / fast_pskip=0 / chroma_qp_offset=-3 / threads=12 / sliced_threads=0 / nr=0 / decimate=0 / interlaced=0 / bluray_compat=0 / constrained_intra=0 / bframes=9 / b_pyramid=2 / b_adapt=2 / b_bias=0 / direct=3 / weightb=1 / open_gop=0 / weightp=2 / keyint=240 / keyint_min=23 / scenecut=40 / intra_refresh=0 / rc=2pass / mbtree=0 / bitrate=1455 / ratetol=1.0 / qcomp=0.60 / qpmin=0 / qpmax=69 / qpstep=4 / cplxblur=20.0 / qblur=0.5 / ip_ratio=1.40 / pb_ratio=1.30 / aq=1:1.00
Default : Yes
Forced : No
Audio #1
ID : 2
Format : AC-3
Format/Info : Audio Coding 3
Mode extension : CM (complete main)
Format settings, Endianness : Big
Codec ID : A_AC3
Duration : 1h 42mn
Bit rate mode : Constant
Bit rate : 384 Kbps
Channel(s) : 2 channels
Channel positions : Front: L R
Sampling rate : 48.0 KHz
Bit depth : 16 bits
Compression mode : Lossy
Stream size : 283 MiB (17%)
Title : Профессиональный (многоголосый)
Language : Russian
Default : Yes
Forced : No
Audio #2
ID : 3
Format : AC-3
Format/Info : Audio Coding 3
Mode extension : CM (complete main)
Format settings, Endianness : Big
Codec ID : A_AC3
Duration : 1h 42mn
Bit rate mode : Constant
Bit rate : 448 Kbps
Channel(s) : 6 channels
Channel positions : Front: L C R, Side: L R, LFE
Sampling rate : 48.0 KHz
Bit depth : 16 bits
Compression mode : Lossy
Stream size : 330 MiB (20%)
Language : English
Default : No
Forced : No
Text #1
ID : 4
Format : UTF-8
Codec ID : S_TEXT/UTF8
Codec ID/Info : UTF-8 Plain Text
Language : Russian
Default : No
Forced : No
Text #2
ID : 5
Format : UTF-8
Codec ID : S_TEXT/UTF8
Codec ID/Info : UTF-8 Plain Text
Language : English
Default : No
Forced : No
Menu
00:00:00.000 : en:00:00:00.000
00:05:54.145 : en:00:05:54.145
00:12:57.610 : en:00:12:57.610
00:17:51.404 : en:00:17:51.404
00:25:28.360 : en:00:25:28.360
00:30:34.666 : en:00:30:34.666
00:36:52.293 : en:00:36:52.293
00:42:18.703 : en:00:42:18.703
00:47:47.531 : en:00:47:47.531
00:53:05.349 : en:00:53:05.349
01:00:39.344 : en:01:00:39.344
01:08:57.759 : en:01:08:57.759
01:17:00.991 : en:01:17:00.991
01:20:07.511 : en:01:20:07.511
01:24:39.241 : en:01:24:39.241
01:33:18.134 : en:01:33:18.134

Скриншоты



Релиз от:
Авторы релиза:
[Профиль] [ЛС]
Показать сообщения:    

Текущее время: Сегодня 11:07

Часовой пояс: GMT



Вы не можете начинать темы
Вы не можете отвечать на сообщения
Вы не можете редактировать свои сообщения
Вы не можете удалять свои сообщения
Вы не можете голосовать в опросах
Вы не можете прикреплять файлы к сообщениям
Вы не можете скачивать файлы