Ровер / Бродяга / The Rover (2014) BDRip 1080p | Матвеев, L2, L1

 
Автор Сообщение

sergej644 ®

Пол:

Стаж: 4 года 11 месяцев

Сообщений: 6046

Откуда: Soviet Union



Награды: Нет

Торрент-статистика

Создавать темы 05-Сен-2014 09:27

[Цитировать]

Ровер / The Rover Название: Ровер
Оригинальное название: The Rover
Год выхода: 2014
Жанр: Драма, криминал-Режиссер: Дэвид Мишо
В ролях: Гай Пирс, Чан Кьень, Роберт Паттинсон, Тек Конг Лим, Скут МакНэйри, Таванда Маниймо, Дэвид Филд, Скотт Перри, Ричард Грин, Бен Армер-О фильме:
Главный герой преследует по дикой австралийской природе банду, угнавшую его автомобиль, и оказывается в ловушке. Современный вестерн в постапокалиптическом сеттинге, где есть преступление, и есть наказание, которое главный герой желает обрушить на головы своих обидчиков. И высшая философия, четко прописанная мотивация… какое это имеет значение в месте, где пистолет — это Бог и единственное, что он может даровать — это смерть.- -Страна: Австралия, США, Porchlight Films, Lava Bear Films, Blue-Tongue Films
Продолжительность: 01:42:53
Перевод: Авторский (Матвеев - Doctor Joker) , любительский двухголосый (Paradox), любительский одноголосый (R.A.I.M)-Качество: BDRip 1080p
Видео: MPEG-4 AVC, 13 Мбит/с, 1920x800
Звук: Русский (AС3, 6 ch, 384 Кбит/с), (AС3, 6 ch, 448 Кбит/с), (МР3, 2 ch, 128 Кбит/с), английский (DTS, 6 ch, 1510 Кбит/с)
Субтитры: Русские, английские

Скриншоты


MediaInfo

Общее
Уникальный идентификатор                 : 187027445830299357896290139867089955308 (0x8CB42D0380773979A7320C57CF3369EC)
Полное имя                               : E:The.Rover.2014.BDRip.1080p.mkv
Формат                                   : Matroska
Версия формата                           : Version 2
Размер файла                             : 11,4 Гбайт
Продолжительность                        : 1 ч. 42 м.
Общий поток                              : 15,8 Мбит/сек
Название фильма                          : The.Rover.2014.1080p.BluRay.DTS.x264-HDAccess
Дата кодирования                         : UTC 2014-09-04 15:25:01
Программа кодирования                    : mkvmerge v7.1.0 ('Good Love') 64bit built on Jul 27 2014 13:06:55
Библиотека кодирования                   : libebml v1.3.0 + libmatroska v1.4.1
DURATION                                 : 01:27:14.729000000
NUMBER_OF_FRAMES                         : 513
NUMBER_OF_BYTES                          : 16373
_STATISTICS_WRITING_APP                  : mkvmerge v7.1.0 ('Good Love') 64bit built on Jul 27 2014 13:06:55
_STATISTICS_WRITING_DATE_UTC             : 2014-09-04 15:25:01
_STATISTICS_TAGS                         : BPS DURATION NUMBER_OF_FRAMES NUMBER_OF_BYTES
Видео
Идентификатор                            : 1
Формат                                   : AVC
Формат/Информация                        : Advanced Video Codec
Профиль формата                          : High@L4.1
Параметр CABAC формата                   : Да
Параметр ReFrames формата                : 5 кадров
Идентификатор кодека                     : V_MPEG4/ISO/AVC
Продолжительность                        : 1 ч. 42 м.
Битрейт                                  : 13,0 Мбит/сек
Ширина                                   : 1920 пикселей
Высота                                   : 800 пикселей
Соотношение сторон                       : 2,40:1
Режим частоты кадров                     : Постоянный
Частота кадров                           : 23,976 кадра/сек
Цветовое пространство                    : YUV
Субдискретизация насыщенности            : 4:2:0
Битовая глубина                          : 8 бит
Тип развёртки                            : Прогрессивная
Бит/(Пиксели*Кадры)                      : 0.354
Размер потока                            : 9,37 Гбайт (82%)
Заголовок                                : The.Rover.2014.1080p.BluRay.DTS.x264-HDAccess
Библиотека кодирования                   : x264 core 142 r2453kMod ea0ca51
Настройки программы                      : cabac=1 / ref=5 / deblock=1:-3:-3 / analyse=0x3:0x133 / me=umh / subme=10 / psy=1 / fade_compensate=0.00 / psy_rd=1.01:0.00 / mixed_ref=1 / me_range=24 / chroma_me=1 / trellis=2 / 8x8dct=1 / cqm=0 / deadzone=21,11 / fast_pskip=0 / chroma_qp_offset=-2 / threads=24 / lookahead_threads=6 / sliced_threads=0 / nr=0 / decimate=0 / interlaced=0 / bluray_compat=0 / constrained_intra=0 / fgo=0 / bframes=10 / b_pyramid=2 / b_adapt=2 / b_bias=0 / direct=3 / weightb=1 / open_gop=0 / weightp=2 / keyint=250 / keyint_min=23 / scenecut=40 / intra_refresh=0 / rc=crf / mbtree=0 / crf=17.4000 / qcomp=0.75 / qpmin=0 / qpmax=69 / qpstep=4 / ip_ratio=1.30 / pb_ratio=1.20 / aq=1:0.84
Язык                                     : English
Default                                  : Да
Forced                                   : Нет
DURATION                                 : 01:42:52.959000000
NUMBER_OF_FRAMES                         : 148003
NUMBER_OF_BYTES                          : 10302435770
_STATISTICS_WRITING_APP                  : mkvmerge v7.1.0 ('Good Love') 64bit built on Jul 27 2014 13:06:55
_STATISTICS_WRITING_DATE_UTC             : 2014-09-04 15:25:01
_STATISTICS_TAGS                         : BPS DURATION NUMBER_OF_FRAMES NUMBER_OF_BYTES
Аудио #1
Идентификатор                            : 2
Формат                                   : AC-3
Формат/Информация                        : Audio Coding 3
Расширение режима                        : CM (complete main)
Параметр Endianness формата              : Big
Идентификатор кодека                     : A_AC3
Продолжительность                        : 1 ч. 42 м.
Вид битрейта                             : Постоянный
Битрейт                                  : 448 Кбит/сек
Каналы                                   : 6 каналов
Расположение каналов                     : Front: L C R, Side: L R, LFE
Частота                                  : 48,0 КГц
Битовая глубина                          : 16 бит
Метод сжатия                             : С потерями
Размер потока                            : 330 Мбайт (3%)
Заголовок                                : AVO [Matveev - Doctor Joker] - AC3 5.1 448 kbps
Язык                                     : Russian
Default                                  : Да
Forced                                   : Нет
Аудио #2
Идентификатор                            : 3
Формат                                   : AC-3
Формат/Информация                        : Audio Coding 3
Расширение режима                        : CM (complete main)
Параметр Endianness формата              : Big
Идентификатор кодека                     : A_AC3
Продолжительность                        : 1 ч. 42 м.
Вид битрейта                             : Постоянный
Битрейт                                  : 384 Кбит/сек
Каналы                                   : 6 каналов
Расположение каналов                     : Front: L C R, Side: L R, LFE
Частота                                  : 48,0 КГц
Битовая глубина                          : 16 бит
Метод сжатия                             : С потерями
Размер потока                            : 283 Мбайт (2%)
Заголовок                                : DVO [Paradox] - AC3 5.1 384 kbps
Язык                                     : Russian
Default                                  : Нет
Forced                                   : Нет
Аудио #3
Идентификатор                            : 4
Формат                                   : MPEG Audio
Версия формата                           : Version 1
Профиль формата                          : Layer 3
Режим                                    : Joint stereo
Расширение режима                        : MS Stereo
Идентификатор кодека                     : A_MPEG/L3
Идентификатор кодека/Подсказка           : MP3
Продолжительность                        : 1 ч. 42 м.
Вид битрейта                             : Постоянный
Битрейт                                  : 128 Кбит/сек
Каналы                                   : 2 канала
Частота                                  : 48,0 КГц
Метод сжатия                             : С потерями
Размер потока                            : 94,2 Мбайт (1%)
Заголовок                                : VO [R.A.I.M] - MP3 2.0 128 kbps
Библиотека кодирования                   : LAME3.97
Настройки программы                      : -m j -V 4 -q 3 -lowpass 17 -b 128-m j -V 4 -q 3 -lowpass 17 -b 128-m j -V 4 -q 3 -lowpass 17 -b 128
Язык                                     : Russian
Default                                  : Нет
Forced                                   : Нет
Аудио #4
Идентификатор                            : 5
Формат                                   : DTS
Формат/Информация                        : Digital Theater Systems
Режим                                    : 16
Параметр Endianness формата              : Big
Идентификатор кодека                     : A_DTS
Продолжительность                        : 1 ч. 42 м.
Вид битрейта                             : Постоянный
Битрейт                                  : 1509 Кбит/сек
Каналы                                   : 6 каналов
Расположение каналов                     : Front: L C R, Side: L R, LFE
Частота                                  : 48,0 КГц
Битовая глубина                          : 24 бит
Метод сжатия                             : С потерями
Размер потока                            : 1,08 Гбайт (10%)
Заголовок                                : Original - DTS 5.1 1509 kbps
Язык                                     : English
Default                                  : Нет
Forced                                   : Нет
Текст #1
Идентификатор                            : 6
Формат                                   : UTF-8
Идентификатор кодека                     : S_TEXT/UTF8
Идентификатор кодека/Информация          : UTF-8 Plain Text
Язык                                     : Russian
Default                                  : Нет
Forced                                   : Нет
Текст #2
Идентификатор                            : 7
Формат                                   : UTF-8
Идентификатор кодека                     : S_TEXT/UTF8
Идентификатор кодека/Информация          : UTF-8 Plain Text
Язык                                     : English
Default                                  : Нет
Forced                                   : Нет
Меню
00:00:00.000                             : en:00:00:00.000
00:05:54.145                             : en:00:05:54.145
00:12:57.610                             : en:00:12:57.610
00:17:51.404                             : en:00:17:51.404
00:25:28.360                             : en:00:25:28.360
00:30:34.666                             : en:00:30:34.666
00:36:52.293                             : en:00:36:52.293
00:42:18.703                             : en:00:42:18.703
00:47:47.531                             : en:00:47:47.531
00:53:05.349                             : en:00:53:05.349
01:00:39.344                             : en:01:00:39.344
01:08:57.759                             : en:01:08:57.759
01:17:00.991                             : en:01:17:00.991
01:20:07.511                             : en:01:20:07.511
01:24:39.241                             : en:01:24:39.241
01:33:18.134                             : en:01:33:18.134
[Профиль] [ЛС]
Показать сообщения:    

Текущее время: Сегодня 17:37

Часовой пояс: GMT



Вы не можете начинать темы
Вы не можете отвечать на сообщения
Вы не можете редактировать свои сообщения
Вы не можете удалять свои сообщения
Вы не можете голосовать в опросах
Вы не можете прикреплять файлы к сообщениям
Вы не можете скачивать файлы