Робот по имени Чаппи / Chappie (Нил Бломкамп /Neill Blomkamp)[2015, Фантастика, Боевик, Триллер, BDRip] 720p | Лицензия

 
Автор Сообщение

sergej644 ®

Пол:

Стаж: 4 года 11 месяцев

Сообщений: 6041

Откуда: Soviet Union



Награды: Нет

Торрент-статистика

Создавать темы 05-Июл-2015 19:35

[Цитировать]

Робот по имени Чаппи / Chappie (2015) BDRip 720p
Страна: США, Мексика
Студия: Columbia Pictures, Media Rights Capital, LStar Capital
Год: 2015
Жанр: Фантастика, Боевик, Триллер
Режиссер: Нил Бломкамп /Neill Blomkamp/
В ролях: Йоланди Фиссер /Yo-Landi Visser/, Хосе Пабло Кантильо /Jose Pablo Cantillo/, Хью Джекман /Hugh Jackman/, Сигурни Уивер /Sigourney Weaver/, Брэндон Оре /Brandon Auret/, Дев Патель /Dev Patel/, Шарлто Копли /Sharlto Copley/, Андерсон Купер /Anderson Cooper/, Джонни Селема /Johnny Selema/, Ниндзя /Ninja/
О фильме: Чаппи - вундеркинд. Как и любой другой ребенок, он попадает под влияние своего окружения, и только его сердце и душа помогут ему найти свой путь. Но есть одна вещь, которая делает Чаппи непохожим на всех остальных: он – первый робот, способный чувствовать и думать.

Релиз от HDCLUB
Рип от VietHD
Продолжительность: 02:00:19
Перевод: Русский дублированный перевод (BD CEE) + Украинский дублированный перевод (BD CEE) + Оригинальная английская дорожка.
Субтитры: Русские (форсированные, полные), Украинские, Английские.
Информация о файле:
Качество: BDRip 720p (Исходник: Blu-ray)
Формат: MKV; MPEG-4 AVC; x264 codec
Видео: 1280 x 534; 23.976 fps; 6709 kbps; 0.407 bit/pixel
Звук #1: Russian AC3 Dolby Digital; 640 Kbps; 5.1 ch; 48 KHz
Звук #2: Ukrainian AC3 Dolby Digital; 640 Kbps; 5.1 ch; 48 KHz
Звук #3: English DTS; 1536 Kbps; 5.1 ch; 48 KHz
Субтитры: Russian (Forced, Full), Ukrainian, English
Размер файла: 8303 Mb

MediaInfo

General
Complete name : Robot.po.imeni.Chappi.2015.BDRip.720p.mkv
Format : Matroska
Format version : Version 2
File size : 8.11 GiB
Duration : 2h 0mn
Overall bit rate : 9 648 Kbps
Movie name : Chappie (2015) - Release for HDCLUB
Encoded date : UTC 2015-06-06 05:14:13
Writing application : mkvmerge v3.4.0 ('Rapunzel') built on May 15 2010 09:38:20
Writing library : libebml v0.8.0 + libmatroska v0.9.0
Video
ID : 1
Format : AVC
Format/Info : Advanced Video Codec
Format profile : High@L4.1
Format settings, CABAC : Yes
Format settings, ReFrames : 12 frames
Codec ID : V_MPEG4/ISO/AVC
Duration : 2h 0mn
Bit rate : 6 667 Kbps
Width : 1 280 pixels
Height : 534 pixels
Display aspect ratio : 2.40:1
Original display aspect ratio : 2.40:1
Frame rate mode : Constant
Frame rate : 23.976 fps
Color space : YUV
Chroma subsampling : 4:2:0
Bit depth : 8 bits
Scan type : Progressive
Bits/(Pixel*Frame) : 0.407
Stream size : 5.60 GiB (69%)
Title : Chappie (2015) - Release for HDCLUB
Writing library : x264 core 146 r2538kMod 121396c
Encoding settings : cabac=1 / ref=12 / deblock=1:-3:-3 / analyse=0x3:0x133 / me=umh / subme=10 / psy=1 / fade_compensate=0.00 / psy_rd=0.95:0.00 / mixed_ref=1 / me_range=16 / chroma_me=1 / trellis=2 / 8x8dct=1 / cqm=0 / deadzone=21,11 / fast_pskip=1 / chroma_qp_offset=-2 / threads=12 / lookahead_threads=2 / sliced_threads=0 / nr=0 / decimate=1 / interlaced=0 / bluray_compat=0 / constrained_intra=0 / fgo=0 / bframes=8 / b_pyramid=2 / b_adapt=2 / b_bias=0 / direct=3 / weightb=1 / open_gop=0 / weightp=2 / keyint=250 / keyint_min=23 / scenecut=40 / intra_refresh=0 / rc_lookahead=60 / rc=crf / mbtree=0 / crf=15.7000 / qcomp=0.75 / qpmin=0 / qpmax=69 / qpstep=4 / vbv_maxrate=62500 / vbv_bufsize=78125 / crf_max=0.0 / nal_hrd=none / filler=0 / ip_ratio=1.20 / pb_ratio=1.10 / aq=3:0.70
Language : English
Default : Yes
Forced : No
Matrix coefficients : BT.709
Audio #1
ID : 2
Format : AC-3
Format/Info : Audio Coding 3
Mode extension : CM (complete main)
Format settings, Endianness : Big
Codec ID : A_AC3
Duration : 2h 0mn
Bit rate mode : Constant
Bit rate : 640 Kbps
Channel(s) : 6 channels
Channel positions : Front: L C R, Side: L R, LFE
Sampling rate : 48.0 KHz
Bit depth : 16 bits
Compression mode : Lossy
Stream size : 551 MiB (7%)
Title : AC3 5.1 @ 640 kbps - DUB, Blu-ray CEE
Language : Russian
Default : Yes
Forced : No
Audio #2
ID : 3
Format : AC-3
Format/Info : Audio Coding 3
Mode extension : CM (complete main)
Format settings, Endianness : Big
Codec ID : A_AC3
Duration : 2h 0mn
Bit rate mode : Constant
Bit rate : 640 Kbps
Channel(s) : 6 channels
Channel positions : Front: L C R, Side: L R, LFE
Sampling rate : 48.0 KHz
Bit depth : 16 bits
Compression mode : Lossy
Stream size : 551 MiB (7%)
Title : AC3 5.1 @ 640 kbps - DUB, Blu-ray CEE
Language : Ukrainian
Default : No
Forced : No
Audio #3
ID : 4
Format : DTS
Format/Info : Digital Theater Systems
Mode : 16
Format settings, Endianness : Big
Codec ID : A_DTS
Duration : 2h 0mn
Bit rate mode : Constant
Bit rate : 1 509 Kbps
Channel(s) : 6 channels
Channel positions : Front: L C R, Side: L R, LFE
Sampling rate : 48.0 KHz
Bit depth : 24 bits
Compression mode : Lossy
Delay relative to video : 11ms
Stream size : 1.27 GiB (16%)
Title : DTS 5.1 @ 1536 kbps
Language : English
Default : No
Forced : No
Text #1
ID : 5
Format : UTF-8
Codec ID : S_TEXT/UTF8
Codec ID/Info : UTF-8 Plain Text
Title : Forced, iTunes
Language : Russian
Default : Yes
Forced : No
Text #2
ID : 6
Format : UTF-8
Codec ID : S_TEXT/UTF8
Codec ID/Info : UTF-8 Plain Text
Title : iTunes
Language : Russian
Default : No
Forced : No
Text #3
ID : 7
Format : UTF-8
Codec ID : S_TEXT/UTF8
Codec ID/Info : UTF-8 Plain Text
Title : iTunes
Language : Ukrainian
Default : No
Forced : No
Text #4
ID : 8
Format : UTF-8
Codec ID : S_TEXT/UTF8
Codec ID/Info : UTF-8 Plain Text
Title : iTunes
Language : English
Default : No
Forced : No
Menu
00:00:00.000 : en:00:00:00.000
00:03:37.008 : en:00:03:37.008
00:09:55.261 : en:00:09:55.261
00:13:50.496 : en:00:13:50.496
00:21:53.646 : en:00:21:53.646
00:31:17.125 : en:00:31:17.125
00:37:19.320 : en:00:37:19.320
00:46:58.733 : en:00:46:58.733
00:54:36.690 : en:00:54:36.690
01:06:12.927 : en:01:06:12.927
01:09:57.652 : en:01:09:57.652
01:16:48.395 : en:01:16:48.395
01:24:59.553 : en:01:24:59.553
01:31:35.198 : en:01:31:35.198
01:42:36.942 : en:01:42:36.942
01:50:03.597 : en:01:50:03.597

Скриншоты

[Профиль] [ЛС]
Кто просматривает тему:

Форум Тема Автор Размер
Discovery Discovery. Под властью роботов / Discovery. When Robots Rule (Ворнер Барнез) [01.03.2014, документальный, HDTVRip] reversefile 510 MB
R.G.TorrentFilm Video Акула-Робот / Roboshark (Джеффри Скотт Ландо / Jeffery Scott Lando) [2015, Канада, Болгария, Фантастика, боевик, триллер, WEB-DLRip] MVO (iTunes) Один 777 747 MB
Фильмы 2011 года Истории роботов / Robot Stories (2003) DVDRip | P sergej644 1.33 GB
Фильмы (HD DVD, Blu-ray и BDRemux) Меня зовут Джиг Робот / Lo chiamavano Jeeg Robot (2015) BDRemux 1080p | L1 достали все 30.97 GB
Фильмы (HD Rips | 720p, 1080p) Меня зовут Джиг Робот / Lo chiamavano Jeeg Robot (2015) BDRip 1080p | L1 Russian Mafia 11.56 GB
Фильмы 2015 года Меня зовут Джиг Робот / Lo chiamavano Jeeg Robot (2015) HDRip | L1 BOSS 1.44 GB
Фильмы (HD Rips | 720p, 1080p) Меня зовут Джиг Робот / Lo chiamavano Jeeg Robot (2015) WEBRip 720p | L1 достали все 1.58 GB
Зарубежные сериалы Мистер Робот / Mr. Robot (Сезон 2, Серия 1-10 из 13) (Нильс Арден Оплев) [2016, Детектив, Драма, Криминал , WEB-DLRip 1080p ] [MVO] [LostFilm,NewStudiо,BaibaKo,Kravec,OMSKBIRD,FocusStudiо,Kubik V... Враг Нароода 38.64 GB
Показать сообщения:    

Текущее время: Сегодня 08:32

Часовой пояс: GMT



Вы не можете начинать темы
Вы не можете отвечать на сообщения
Вы не можете редактировать свои сообщения
Вы не можете удалять свои сообщения
Вы не можете голосовать в опросах
Вы не можете прикреплять файлы к сообщениям
Вы не можете скачивать файлы