Робот по имени Чаппи / Chappie (2015) BDRip 1080p | Лицензия

 
Автор Сообщение

sergej644 ®

Пол:

Стаж: 4 года 11 месяцев

Сообщений: 6035

Откуда: Soviet Union



Награды: Нет

Торрент-статистика

Создавать темы 18-Июн-2015 20:10

[Цитировать]

Информация о фильме
Название: Робот по имени Чаппи
Оригинальное название: Chappie
Год выхода: 2015
Жанр: фантастика, боевик, триллер
Режиссер: Нил Бломкамп
В ролях: Шарлто Копли, Дев Патель, Ниндзя, Йоланди Фиссер, Хосе Пабло Кантильо, Хью Джекман, Сигурни Уивер, Брэндон Оре, Джонни Селема, Андерсон Купер
О фильме: Чаппи - вундеркинд. Как и любой другой ребенок, он попадает под влияние своего окружения, и только его сердце и душа помогут ему найти свой путь. Но есть одна вещь, которая делает Чаппи непохожим на всех остальных: он – первый робот, способный чувствовать и думать.

Выпущено: Columbia Pictures
Продолжительность: 02:00:19
Перевод: Дублированный (лицензия) + украинский дублированный (лицензия)
Файл
Кодек: x264
Качество: BDRip (источник: Blu-ray Disc)
Видео: 1920x800 (2,40:1), 23.976 fps, 7320 kbps
Аудио #1: AC-3, 6 ch, 640 kbps (Rus)
Аудио #2: AC-3, 6 ch, 640 kbps (Ukr)
Аудио #3: AC-3, 6 ch, 640 kbps (Eng)
Субтитры: Русские (форс,полные), Украинские (форс,полные), Английские
Скачать: сэмпл
Скриншоты

MI

General
Unique ID : 173413217116181032561206768675890082154 (0x82762BB6E7A9CF53AC5DB78FC03F316A)
Complete name : D:Chappie.2015.BDRip.1080p.Rus.Ukr.Eng.mkv
Format : Matroska
Format version : Version 2
File size : 7.77 GiB
Duration : 2h 0mn
Overall bit rate : 9 244 Kbps
Movie name : Робот по имени Чаппи / Chappie (2015)
Encoded date : UTC 2015-06-07 09:29:25
Writing application : mkvmerge v5.8.0 ('No Sleep / Pillow') built on Sep 2 2012 15:37:04
Writing library : libebml v1.2.3 + libmatroska v1.3.0
Attachements : cover.png / logfile.log
Video
ID : 1
Format : AVC
Format/Info : Advanced Video Codec
Format profile : High@L4.1
Format settings, CABAC : Yes
Format settings, ReFrames : 5 frames
Codec ID : V_MPEG4/ISO/AVC
Duration : 2h 0mn
Bit rate : 7 320 Kbps
Width : 1 920 pixels
Height : 800 pixels
Display aspect ratio : 2.40:1
Frame rate mode : Constant
Frame rate : 23.976 fps
Color space : YUV
Chroma subsampling : 4:2:0
Bit depth : 8 bits
Scan type : Progressive
Bits/(Pixel*Frame) : 0.199
Stream size : 6.00 GiB (77%)
Title : Робот по имени Чаппи / Chappie (2015)
Writing library : x264 core 146 r0+2586 e393126 t_mod_Custom [8-bit@all X86_64]
Encoding settings : cabac=1 / ref=5 / deblock=1:-3:-3 / analyse=0x3:0x133 / me=umh / subme=10 / psy=1 / fade_compensate=0.00 / psy_rd=1.05:0.00 / mixed_ref=1 / me_range=32 / chroma_me=1 / trellis=2 / 8x8dct=1 / cqm=0 / deadzone=21,11 / fast_pskip=0 / chroma_qp_offset=-2 / threads=12 / lookahead_threads=3 / sliced_threads=0 / nr=0 / decimate=1 / interlaced=0 / bluray_compat=0 / constrained_intra=0 / fgo=0 / bframes=10 / b_pyramid=2 / b_adapt=2 / b_bias=0 / direct=3 / weightb=1 / open_gop=0 / weightp=2 / keyint=240 / keyint_min=23 / scenecut=40 / intra_refresh=0 / rc=2pass / mbtree=0 / bitrate=7320 / ratetol=1.0 / qcomp=0.70 / qpmin=0:0:0 / qpmax=69:69:69 / qpstep=4 / cplxblur=20.0 / qblur=0.5 / ip_ratio=1.40 / pb_ratio=1.30 / aq=1:0.70 / aq-sensitivity=10.00 / aq-factor=1.00:1.00:1.00 / aq2=0 / aq3=0
Language : English
Default : Yes
Forced : No
Audio #1
ID : 2
Format : AC-3
Format/Info : Audio Coding 3
Mode extension : CM (complete main)
Format settings, Endianness : Big
Codec ID : A_AC3
Duration : 2h 0mn
Bit rate mode : Constant
Bit rate : 640 Kbps
Channel(s) : 6 channels
Channel positions : Front: L C R, Side: L R, LFE
Sampling rate : 48.0 KHz
Bit depth : 16 bits
Compression mode : Lossy
Stream size : 551 MiB (7%)
Title : Дубляж, Blu-ray CEE
Language : Russian
Default : Yes
Forced : No
Audio #2
ID : 3
Format : AC-3
Format/Info : Audio Coding 3
Mode extension : CM (complete main)
Format settings, Endianness : Big
Codec ID : A_AC3
Duration : 2h 0mn
Bit rate mode : Constant
Bit rate : 640 Kbps
Channel(s) : 6 channels
Channel positions : Front: L C R, Side: L R, LFE
Sampling rate : 48.0 KHz
Bit depth : 16 bits
Compression mode : Lossy
Stream size : 551 MiB (7%)
Title : Дубляж, Blu-ray CEE
Language : Ukrainian
Default : No
Forced : No
Audio #3
ID : 4
Format : AC-3
Format/Info : Audio Coding 3
Mode extension : CM (complete main)
Format settings, Endianness : Big
Codec ID : A_AC3
Duration : 2h 0mn
Bit rate mode : Constant
Bit rate : 640 Kbps
Channel(s) : 6 channels
Channel positions : Front: L C R, Side: L R, LFE
Sampling rate : 48.0 KHz
Bit depth : 16 bits
Compression mode : Lossy
Stream size : 551 MiB (7%)
Title : English
Language : English
Default : No
Forced : No
Text #1
ID : 5
Format : UTF-8
Codec ID : S_TEXT/UTF8
Codec ID/Info : UTF-8 Plain Text
Title : Russian (Forced)
Language : Russian
Default : Yes
Forced : No
Text #2
ID : 6
Format : UTF-8
Codec ID : S_TEXT/UTF8
Codec ID/Info : UTF-8 Plain Text
Title : Russian
Language : Russian
Default : No
Forced : No
Text #3
ID : 7
Format : UTF-8
Codec ID : S_TEXT/UTF8
Codec ID/Info : UTF-8 Plain Text
Title : Ukrainian (Forced)
Language : Ukrainian
Default : No
Forced : No
Text #4
ID : 8
Format : UTF-8
Codec ID : S_TEXT/UTF8
Codec ID/Info : UTF-8 Plain Text
Title : Ukrainian
Language : Ukrainian
Default : No
Forced : No
Text #5
ID : 9
Format : UTF-8
Codec ID : S_TEXT/UTF8
Codec ID/Info : UTF-8 Plain Text
Title : English (Forced)
Language : English
Default : No
Forced : No
Text #6
ID : 10
Format : UTF-8
Codec ID : S_TEXT/UTF8
Codec ID/Info : UTF-8 Plain Text
Title : English
Language : English
Default : No
Forced : No
Text #7
ID : 11
Format : UTF-8
Codec ID : S_TEXT/UTF8
Codec ID/Info : UTF-8 Plain Text
Title : English (SDH)
Language : English
Default : No
Forced : No
Text #8
ID : 12
Format : UTF-8
Codec ID : S_TEXT/UTF8
Codec ID/Info : UTF-8 Plain Text
Title : English (SDH Colored)
Language : English
Default : No
Forced : No
Menu
00:00:00.000 : en:(01)00:00:00:000
00:03:37.008 : en:(02)00:03:37:008
00:09:55.260 : en:(03)00:09:55:260
00:13:50.495 : en:(04)00:13:50:495
00:21:53.644 : en:(05)00:21:53:644
00:31:17.541 : en:(06)00:31:17:541
00:37:19.320 : en:(07)00:37:19:320
00:46:58.731 : en:(08)00:46:58:731
00:54:36.690 : en:(09)00:54:36:690
01:06:12.927 : en:(10)01:06:12:927
01:09:57.649 : en:(11)01:09:57:649
01:16:48.395 : en:(12)01:16:48:395
01:24:59.551 : en:(13)01:24:59:551
01:31:35.198 : en:(14)01:31:35:198
01:42:36.942 : en:(15)01:42:36:942
01:50:03.595 : en:(16)01:50:03:595

x264

x264 [info]: frame I:1460 Avg QP:15.53 size:201272
x264 [info]: frame P:49301 Avg QP:17.97 size: 68119
x264 [info]: frame B:122326 Avg QP:20.46 size: 24137
x264 [info]: consecutive B-frames: 5.3% 8.4% 10.4% 43.4% 11.2% 13.3% 4.0% 3.4% 0.3% 0.1% 0.1%
[Профиль] [ЛС]
Кто просматривает тему:

Форум Тема Автор Размер
Discovery Discovery. Под властью роботов / Discovery. When Robots Rule (Ворнер Барнез) [01.03.2014, документальный, HDTVRip] reversefile 510 MB
R.G.TorrentFilm Video Акула-Робот / Roboshark (Джеффри Скотт Ландо / Jeffery Scott Lando) [2015, Канада, Болгария, Фантастика, боевик, триллер, WEB-DLRip] MVO (iTunes) Один 777 747 MB
Фильмы 2011 года Истории роботов / Robot Stories (2003) DVDRip | P sergej644 1.33 GB
Фильмы (HD DVD, Blu-ray и BDRemux) Меня зовут Джиг Робот / Lo chiamavano Jeeg Robot (2015) BDRemux 1080p | L1 достали все 30.97 GB
Фильмы (HD Rips | 720p, 1080p) Меня зовут Джиг Робот / Lo chiamavano Jeeg Robot (2015) BDRip 1080p | L1 Russian Mafia 11.56 GB
Фильмы 2015 года Меня зовут Джиг Робот / Lo chiamavano Jeeg Robot (2015) HDRip | L1 BOSS 1.44 GB
Фильмы (HD Rips | 720p, 1080p) Меня зовут Джиг Робот / Lo chiamavano Jeeg Robot (2015) WEBRip 720p | L1 достали все 1.58 GB
Зарубежные сериалы Мистер Робот / Mr. Robot (Сезон 2, Серия 1-10 из 13) (Нильс Арден Оплев) [2016, Детектив, Драма, Криминал , WEB-DLRip 1080p ] [MVO] [LostFilm,NewStudiо,BaibaKo,Kravec,OMSKBIRD,FocusStudiо,Kubik V... Враг Нароода 38.64 GB
Показать сообщения:    

Текущее время: Сегодня 11:55

Часовой пояс: GMT



Вы не можете начинать темы
Вы не можете отвечать на сообщения
Вы не можете редактировать свои сообщения
Вы не можете удалять свои сообщения
Вы не можете голосовать в опросах
Вы не можете прикреплять файлы к сообщениям
Вы не можете скачивать файлы