Робот по имени Чаппи / Chappie (Нил Бломкамп / Neill Blomkamp) [2015 г., США, Мексика, ЮАР, фантастика, боевик, триллер, BDRip] Dub

 
Автор Сообщение

TorrentFilm ®

Пол:

Стаж: 2 года

Сообщений: 7741



Награды: Нет

Торрент-статистика

Создавать темы 08-Июн-2015 00:02

[Цитировать]

Робот по имени Чаппи / Chappie
«I am discovery. I am wonder. I am chappie»-
-
-
-
-- Страна: США, Мексика, ЮАР
Жанр: фантастика, боевик, триллер
Год выпуска: 2015
Продолжительность: 02:00:19
Перевод: Профессиональный (полное дублирование)
Cубтитры: нет
Режиссер: Нил Бломкамп / Neill Blomkamp
В ролях: Шарлто Копли, Дев Патель, Ниндзя, Йоланди Фиссер, Хосе Пабло Кантильо, Хью Джекман, Сигурни Уивер, Брэндон Оре, Джонни Селема, Андерсон Купер
Описание: Чаппи - вундеркинд. Как и любой другой ребенок, он попадает под влияние своего окружения, и только его сердце и душа помогут ему найти свой путь. Но есть одна вещь, которая делает Чаппи непохожим на всех остальных: он – первый робот, способный чувствовать и думать.

Качество видео: BDRip [BDRemux | 1080p | Кинозал]
Формат видео: AVI
Видео: 688x288 (2.39:1), 23.976 fps, XviD build 73 ~732 kbps avg, 0.15 bit/pixel
Аудио: 48 kHz, MPEG Layer 3, 2 ch, ~128.00 kbps avg

MediaInfo

Формат : AVI
Формат/Информация : Audio Video Interleave
Размер файла : 749 Мбайт
Продолжительность : 2 ч. 0 м.
Общий поток : 870 Кбит/сек
Программа кодирования : VirtualDubMod 1.5.10.3 | www.virtualdub-fr.org || (build 2550/release)
Библиотека кодирования : VirtualDubMod build 2550/release
Видео
Идентификатор : 0
Формат : MPEG-4 Visual
Профиль формата : Advanced Simple@L5
Параметр BVOP формата : 2
Параметр QPel формата : Нет
Параметр GMC формата : Без точки перехода
Параметр матрицы формата : Default (MPEG)
Идентификатор кодека : XVID
Идентификатор кодека/Подсказка : XviD
Продолжительность : 2 ч. 0 м.
Битрейт : 732 Кбит/сек
Ширина : 688 пикселей
Высота : 288 пикселей
Соотношение сторон : 2,40:1
Частота кадров : 23,976 кадра/сек
Цветовое пространство : YUV
Субдискретизация насыщенности : 4:2:0
Битовая глубина : 8 бит
Тип развёртки : Прогрессивная
Метод сжатия : С потерями
Бит/(Пиксели*Кадры) : 0.154
Размер потока : 630 Мбайт (84%)
Библиотека кодирования : XviD 73
Аудио
Идентификатор : 1
Формат : MPEG Audio
Версия формата : Version 1
Профиль формата : Layer 3
Идентификатор кодека : 55
Идентификатор кодека/Подсказка : MP3
Продолжительность : 2 ч. 0 м.
Вид битрейта : Постоянный
Битрейт : 128 Кбит/сек
Каналы : 2 канала
Частота : 48,0 КГц
Метод сжатия : С потерями
Размер потока : 110 Мбайт (15%)
Выравнивание : Соединение по промежуткам
Продолжительность промежутка : 42 мс. (1,00 видеокадр)
Время предзагрузки промежутка : 504 мс.
Библиотека кодирования : LAME3.99r
Настройки программы : -m s -V 4 -q 2 -lowpass 17 -b 128

Скриншоты

[Профиль] [ЛС]
Кто просматривает тему:

Форум Тема Автор Размер
Discovery Discovery. Под властью роботов / Discovery. When Robots Rule (Ворнер Барнез) [01.03.2014, документальный, HDTVRip] reversefile 510 MB
R.G.TorrentFilm Video Акула-Робот / Roboshark (Джеффри Скотт Ландо / Jeffery Scott Lando) [2015, Канада, Болгария, Фантастика, боевик, триллер, WEB-DLRip] MVO (iTunes) Один 777 747 MB
Фильмы 2011 года Истории роботов / Robot Stories (2003) DVDRip | P sergej644 1.33 GB
Фильмы (HD DVD, Blu-ray и BDRemux) Меня зовут Джиг Робот / Lo chiamavano Jeeg Robot (2015) BDRemux 1080p | L1 достали все 30.97 GB
Фильмы (HD Rips | 720p, 1080p) Меня зовут Джиг Робот / Lo chiamavano Jeeg Robot (2015) BDRip 1080p | L1 Russian Mafia 11.56 GB
Фильмы 2015 года Меня зовут Джиг Робот / Lo chiamavano Jeeg Robot (2015) HDRip | L1 BOSS 1.44 GB
Фильмы (HD Rips | 720p, 1080p) Меня зовут Джиг Робот / Lo chiamavano Jeeg Robot (2015) WEBRip 720p | L1 достали все 1.58 GB
Зарубежные сериалы Мистер Робот / Mr. Robot (Сезон 2, Серия 1-10 из 13) (Нильс Арден Оплев) [2016, Детектив, Драма, Криминал , WEB-DLRip 1080p ] [MVO] [LostFilm,NewStudiо,BaibaKo,Kravec,OMSKBIRD,FocusStudiо,Kubik V... Враг Нароода 38.64 GB
Показать сообщения:    

Текущее время: Сегодня 21:33

Часовой пояс: GMT



Вы не можете начинать темы
Вы не можете отвечать на сообщения
Вы не можете редактировать свои сообщения
Вы не можете удалять свои сообщения
Вы не можете голосовать в опросах
Вы не можете прикреплять файлы к сообщениям
Вы не можете скачивать файлы