Робот по имени Чаппи / CHAPPiE (Нил Бломкамп / Neill Blomkamp) [2015, США, Мексика, ЮАР, фантастика, боевик, триллер, WEB-DLRip] Dub (Rus, Ukr) + Original Eng + Subs (Rus, Ukr, Eng)

 
Автор Сообщение

TorrentFilm ®

Пол:

Стаж: 2 года

Сообщений: 7741



Награды: Нет

Торрент-статистика

Создавать темы 16-Май-2015 00:04

[Цитировать]

Робот по имени Чаппи / CHAPPiE
Страна: США, Мексика, ЮАР
Жанр: фантастика, боевик, триллер
Год выпуска: 2015
Продолжительность: 02:00:21
Перевод 1: Профессиональный (полное дублирование) iTunes
Перевод 2: Профессиональный (полное дублирование) Украинский
Субтитры: русские (на надписи), русские (полные), украинские (полные), английские (полные)
Оригинальная аудиодорожка: английский, африкаанс
Режиссер: Нил Бломкамп / Neill Blomkamp
В ролях: Шарлто Копли, Дев Патель, Ниндзя, Йоланди Фиссер, Хосе Пабло Кантилльо, Хью Джекман, Сигурни Уивер, Брэндон Оре, Джонни Селема, Андерсон Купер, Морис Карпеде, Джейсон Коуп, Кевин Отто, Крис Шилдс, Билл Мэрчент, Роберт Хоббс, Марк К. Куслу, Шерлдон Марема, Шахид Хаджи, Дэвид Давадосс и др.
Описание: Чаппи - вундеркинд. Как и любой другой ребенок, он попадает под влияние своего окружения, и только его сердце и душа помогут ему найти свой путь. Но есть одна вещь, которая делает Чаппи непохожим на всех остальных: он - первый робот, способный чувствовать и думать.
Sample

Работа с видео: whip93
Качество видео: WEB-DLRip (исх. Chappie.2015.720p.WEB-DL.Rus.Ukr.Eng.HDCLUB)
Формат видео: AVI
Видео: Xvid 720x304 23.976fps 1342kbps
Аудио 1: Dolby AC3 48kHz 6ch 384kbps (RU)
Аудио 2: Dolby AC3 48kHz 2ch 192kbps (UA) (отдельно)
Аудио 3: Dolby AC3 48kHz 2ch 192kbps (EN) (отдельно)
Формат субтитров: softsub (SRT)

Доп. информация

Спасибо ЛП за украинскую и оригинальную аудиодорожки.

MediaInfo

General
Complete name : G:\1\Chappie.2015.WEB-DLRip.RU.whip93.avi
Format : AVI
Format/Info : Audio Video Interleave
File size : 1.46 GiB
Duration : 2h 0mn
Overall bit rate : 1 735 Kbps
Writing application : VirtualDubMod 1.5.10.3 | www.virtualdub-fr.org || (build 2550/release)
Writing library : VirtualDubMod build 2550/release
Video
ID : 0
Format : MPEG-4 Visual
Format profile : Advanced Simple@L5
Format settings, BVOP : 1
Format settings, QPel : No
Format settings, GMC : No warppoints
Format settings, Matrix : Default (MPEG)
Codec ID : XVID
Codec ID/Hint : XviD
Duration : 2h 0mn
Bit rate : 1 342 Kbps
Width : 720 pixels
Height : 304 pixels
Display aspect ratio : 2.35:1
Frame rate : 23.976 fps
Color space : YUV
Chroma subsampling : 4:2:0
Bit depth : 8 bits
Scan type : Progressive
Compression mode : Lossy
Bits/(Pixel*Frame) : 0.256
Stream size : 1.13 GiB (77%)
Writing library : XviD 65
Audio
ID : 1
Format : AC-3
Format/Info : Audio Coding 3
Mode extension : CM (complete main)
Format settings, Endianness : Big
Codec ID : 2000
Duration : 2h 0mn
Bit rate mode : Constant
Bit rate : 384 Kbps
Channel(s) : 6 channels
Channel positions : Front: L C R, Side: L R, LFE
Sampling rate : 48.0 KHz
Bit depth : 16 bits
Compression mode : Lossy
Stream size : 331 MiB (22%)
Alignment : Split accross interleaves
Interleave, duration : 42 ms (1.00 video frame)
Interleave, preload duration : 500 ms

Скриншоты

[Профиль] [ЛС]
Кто просматривает тему:

Форум Тема Автор Размер
Discovery Discovery. Под властью роботов / Discovery. When Robots Rule (Ворнер Барнез) [01.03.2014, документальный, HDTVRip] reversefile 510 MB
R.G.TorrentFilm Video Акула-Робот / Roboshark (Джеффри Скотт Ландо / Jeffery Scott Lando) [2015, Канада, Болгария, Фантастика, боевик, триллер, WEB-DLRip] MVO (iTunes) Один 777 747 MB
Фильмы 2011 года Истории роботов / Robot Stories (2003) DVDRip | P sergej644 1.33 GB
Фильмы (HD DVD, Blu-ray и BDRemux) Меня зовут Джиг Робот / Lo chiamavano Jeeg Robot (2015) BDRemux 1080p | L1 достали все 30.97 GB
Фильмы (HD Rips | 720p, 1080p) Меня зовут Джиг Робот / Lo chiamavano Jeeg Robot (2015) BDRip 1080p | L1 Russian Mafia 11.56 GB
Фильмы 2015 года Меня зовут Джиг Робот / Lo chiamavano Jeeg Robot (2015) HDRip | L1 BOSS 1.44 GB
Фильмы (HD Rips | 720p, 1080p) Меня зовут Джиг Робот / Lo chiamavano Jeeg Robot (2015) WEBRip 720p | L1 достали все 1.58 GB
Зарубежные сериалы Мистер Робот / Mr. Robot (Сезон 2, Серия 1-10 из 13) (Нильс Арден Оплев) [2016, Детектив, Драма, Криминал , WEB-DLRip 1080p ] [MVO] [LostFilm,NewStudiо,BaibaKo,Kravec,OMSKBIRD,FocusStudiо,Kubik V... Враг Нароода 38.64 GB
Показать сообщения:    

Текущее время: Сегодня 12:11

Часовой пояс: GMT



Вы не можете начинать темы
Вы не можете отвечать на сообщения
Вы не можете редактировать свои сообщения
Вы не можете удалять свои сообщения
Вы не можете голосовать в опросах
Вы не можете прикреплять файлы к сообщениям
Вы не можете скачивать файлы