Робокоп 3 / RoboCop 3 (Фред Деккер) [1992 г., фантастика, боевик, триллер, криминал, BDRip-AVC] [DUB]

 
Автор Сообщение

Bathory ®

Пол:

Стаж: 1 год 5 месяцев

Сообщений: 281



Награды: 3 (Подробнее)

За внесенный вклад в развитие сайта (Количество: 1) Girls (Количество: 1) Друг (Количество: 1)
Торрент-статистика

Создавать темы 10-Авг-2017 09:09

[Цитировать]

Робокоп 3 / RoboCop 3 - Информация о фильме
Название: Робокоп 3
Оригинальное название: RoboCop 3
Год выхода: 1992
Жанр: фантастика, боевик, триллер, криминал
Режиссер: Фред Деккер
В ролях: Роберт Джон Бёрк, Нэнси Аллен, Рип Торн, Джон Касл, Стивен Рут, Си Си Эйч Паундер, Дэниэл фон Барген, Реми Райан, Роберт Дукуй, Марио Мачадо
О фильме:
Могущественная корпорация ОСР одержима идеей строительства утопического Дельта-Сити на месте Детройта. С этой целью людей массово лишают домов, в городе царит преступность и коррупция. Организовано повстанческое движение, против которого выступает Робокоп и его напарница Льюис, чтобы в последний момент перейти на сторону восставших жителей города. ОСР намерена избавиться от Робокопа. С этой целью из Японии прибывает терминатор-самурай…

Страна: США
Студия: Orion Pictures
Продолжительность: 01:44:50
Перевод: Дубляж
Файл
Кодек: AVC
Качество: BDRip-AVC |Blu-Ray 1080p|
Видео: 768x416, 928 kbps, 23,976 fps, 0,121 Bits/(Pixel*Frame)
Звук: AAC, 48 kHz, 2 ch, 64 kbps
Субтитры: русские (2 вида), английские

MI

Общее
Unique ID : 222196571385340372502046179799520295825 (0xA72980C70A6C63F0BE002C51ACCCBB91)
Complete name : D:RoboCop.3.1992.BDRip-AVC.MegaPeer.mkv
Format : Matroska
Format version : Version 4 / Version 2
File size : 745 Мбайт
Duration : 1 ч. 44 м.
Overall bit rate : 994 Кбит/сек
Encoded date : UTC 2017-08-09 19:30:16
Writing application : mkvmerge v14.0.0 ('Flow') 64bit
Writing library : libebml v1.3.4 + libmatroska v1.4.5
Видео
ID : 1
Format : AVC
Format/Info : Advanced Video Codec
Format profile : High@L4.1
Format settings, CABAC : Да
Format settings, RefFrames : 12 кадров
Codec ID : V_MPEG4/ISO/AVC
Duration : 1 ч. 44 м.
Bit rate : 928 Кбит/сек
Width : 768 пикселей
Height : 416 пикселей
Display aspect ratio : 1,85:1
Frame rate mode : Постоянный
Frame rate : 23,976 (24000/1001) кадра/сек
Color space : YUV
Chroma subsampling : 4:2:0
Bit depth : 8 бит
Scan type : Прогрессивная
Bits/(Pixel*Frame) : 0.121
Stream size : 696 Мбайт (93%)
Writing library : x264 core 152 r2851 ba24899
Encoding settings : cabac=1 / ref=12 / deblock=1:-2:-1 / analyse=0x3:0x133 / me=umh / subme=11 / psy=1 / psy_rd=1.00:0.12 / mixed_ref=1 / me_range=32 / chroma_me=1 / trellis=2 / 8x8dct=1 / cqm=0 / deadzone=21,11 / fast_pskip=0 / chroma_qp_offset=-3 / threads=12 / lookahead_threads=3 / sliced_threads=0 / nr=0 / decimate=0 / interlaced=0 / bluray_compat=0 / constrained_intra=0 / bframes=14 / b_pyramid=2 / b_adapt=2 / b_bias=0 / direct=3 / weightb=1 / open_gop=0 / weightp=2 / keyint=240 / keyint_min=23 / scenecut=0 / intra_refresh=0 / rc_lookahead=60 / rc=2pass / mbtree=1 / bitrate=928 / ratetol=1.0 / qcomp=0.60 / qpmin=0 / qpmax=51 / qpstep=4 / cplxblur=15.0 / qblur=0.5 / vbv_maxrate=50000 / vbv_bufsize=62500 / nal_hrd=none / filler=0 / ip_ratio=1.40 / aq=2:1.00
Default : Да
Forced : Нет
Аудио
ID : 2
Format : AAC
Format/Info : Advanced Audio Codec
Format profile : HE-AAC / LC
Codec ID : A_AAC
Duration : 1 ч. 44 м.
Bit rate : 64,0 Кбит/сек
Channel(s) : 2 канала
Channel positions : Front: L R
Sampling rate : 48,0 КГц / 24,0 КГц
Frame rate : 23,438 кадра/сек (1024 SPF)
Compression mode : С потерями
Delay relative to video : 31 мс.
Stream size : 48,0 Мбайт (6%)
Language : Russian
Default : Да
Forced : Нет
Текст #1
ID : 3
Format : UTF-8
Codec ID : S_TEXT/UTF8
Codec ID/Info : UTF-8 Plain Text
Duration : 1 ч. 36 м.
Bit rate : 64 бит/сек
Count of elements : 821
Stream size : 45,5 Кбайт (0%)
Language : Russian
Default : Да
Forced : Нет
Текст #2
ID : 4
Format : UTF-8
Codec ID : S_TEXT/UTF8
Codec ID/Info : UTF-8 Plain Text
Duration : 1 ч. 37 м.
Bit rate : 65 бит/сек
Count of elements : 817
Stream size : 46,3 Кбайт (0%)
Language : Russian
Default : Нет
Forced : Нет
Текст #3
ID : 5
Format : UTF-8
Codec ID : S_TEXT/UTF8
Codec ID/Info : UTF-8 Plain Text
Duration : 1 ч. 36 м.
Bit rate : 38 бит/сек
Count of elements : 818
Stream size : 27,3 Кбайт (0%)
Language : English
Default : Нет
Forced : Нет

Скриншоты

Релиз:
[Профиль] [ЛС]
Показать сообщения:    

Текущее время: Сегодня 05:55

Часовой пояс: GMT



Вы не можете начинать темы
Вы не можете отвечать на сообщения
Вы не можете редактировать свои сообщения
Вы не можете удалять свои сообщения
Вы не можете голосовать в опросах
Вы не можете прикреплять файлы к сообщениям
Вы не можете скачивать файлы