РобоКоп / RoboCop (Жозе Падилья / José Padilha) [2014, США /, Фантастика, боевик, криминал, ремейк, BDRip-AVC] Dub + Sub Rus,Ukr, Eng + Original Eng

 
Автор Сообщение

Russian Mafia ®

Пол:

Стаж: 1 год 8 месяцев

Сообщений: 4256



Награды: 10 (Подробнее)

Mega Seeder 5 (Количество: 1) Mega Seeder 2 (Количество: 1) Top Releaser 5 (Количество: 1)
Торрент-статистика

Создавать темы 24-Мар-2016 13:07

[Цитировать]

РобоКопRoboCop«У зла нет шансов»
Страна: США / Columbia Pictures, Metro-Goldwyn-Mayer (MGM), Strike Entertainment
Жанр: Фантастика, боевик, криминал, ремейк
Год выпуска: 2014
Продолжительность: 01:57:29
Перевод: Профессиональный (дублированный) [лицензия BD CEE]
Cубтитры: русские,украинские,английские
Оригинальная аудиодорожка: английский
Режиссер: Жозе Падилья / José Padilha
В ролях: Юэль Киннаман, Гари Олдман, Майкл Китон, Эбби Корниш, Джей Барушель, Сэмюэл Л. Джексон, Айми Гарсиа, Дженнифер Или, Джеки Эрл Хейли, Майкл К. Уильямс
Описание: Алекс Мерфи, любящий муж, отец и хороший полицейский, борется с лавиной преступности и коррупции, обрушившейся на Детройт. Его, тяжело раненного при исполнении служебных обязанностей, OmniCorp решает задействовать в своем робототехническом эксперименте, чтобы спасти герою жизнь. Алекс возвращается на улицы города, имея в багаже новые способности, но задаваясь вопросами, с которыми человеку никогда ранее не приходилось сталкиваться.
Доп. информация:
]
Автор рипа: potroks
Качество видео: BDRip-AVC |РобоКоп / RoboCop (2014) 1080p BD-Remux|
Формат видео: MKV
Видео: AVC, 1032x430 (2,40:1), 23,976 fps, 1760 Кbps, 0.165 bit/pixel
Аудио: 48 kHz, AC3 Dolby Digital, 3/2 (L,C,R,l,r) + LFE ch, 448.00 kbps | RUS
Аудио 2: 48 kHz, AC3 Dolby Digital, 3/2 (L,C,R,l,r) + LFE ch, 448.00 kbps | ENG
Формат субтитров: softsub (SRT)
Доп. информация о субтитрах: отключаемые

MediaInfo

General
Unique ID : 242959971297820475553743317778340138148 (0xB6C8636E3F5D29CAA490E2B50B164CA4)
Complete name : F:\Фильмы\Робокоп\ Robokop.2014..BDRip.x264.mkv
Format : Matroska
Format version : Version 4 / Version 2
File size : 2.18 GiB
Duration : 1h 57mn
Overall bit rate : 2 658 Kbps
Movie name : RoboCop
Encoded date : UTC 2014-05-16 13:39:24
Writing application : mkvmerge v5.9.0 ('On The Loose') built on Dec 15 2012 16:39:58
Writing library : libebml v1.3.0 + libmatroska v1.4.0
Video
ID : 1
Format : AVC
Format/Info : Advanced Video Codec
Format profile : High@L4.1
Format settings, CABAC : Yes
Format settings, ReFrames : 10 frames
Codec ID : V_MPEG4/ISO/AVC
Duration : 1h 57mn
Bit rate : 1 760 Kbps
Width : 1 032 pixels
Height : 430 pixels
Display aspect ratio : 2.40:1
Frame rate mode : Constant
Frame rate : 23.976 fps
Color space : YUV
Chroma subsampling : 4:2:0
Bit depth : 8 bits
Scan type : Progressive
Bits/(Pixel*Frame) : 0.165
Stream size : 1.40 GiB (64%)
Title : RoboCop
Writing library : x264 core 130 r2273 b3065e6
Encoding settings : cabac=1 / ref=10 / deblock=1:-2:-2 / analyse=0x3:0x133 / me=umh / subme=11 / psy=1 / psy_rd=1.02:0.00 / mixed_ref=1 / me_range=32 / chroma_me=1 / trellis=2 / 8x8dct=1 / cqm=0 / deadzone=21,11 / fast_pskip=0 / chroma_qp_offset=-2 / threads=9 / lookahead_threads=6 / sliced_threads=0 / nr=0 / decimate=0 / interlaced=0 / bluray_compat=0 / constrained_intra=0 / bframes=11 / b_pyramid=2 / b_adapt=2 / b_bias=0 / direct=3 / weightb=1 / open_gop=0 / weightp=2 / keyint=250 / keyint_min=23 / scenecut=40 / intra_refresh=0 / rc_lookahead=60 / rc=2pass / mbtree=0 / bitrate=1760 / ratetol=1.0 / qcomp=0.70 / qpmin=0 / qpmax=69 / qpstep=4 / cplxblur=20.0 / qblur=0.5 / vbv_maxrate=20000 / vbv_bufsize=20000 / nal_hrd=none / ip_ratio=1.35 / pb_ratio=1.25 / aq=1:0.80
Language : English
Default : Yes
Forced : No
Audio #1
ID : 2
Format : AC-3
Format/Info : Audio Coding 3
Mode extension : CM (complete main)
Format settings, Endianness : Big
Codec ID : A_AC3
Duration : 1h 57mn
Bit rate mode : Constant
Bit rate : 448 Kbps
Channel(s) : 6 channels
Channel positions : Front: L C R, Side: L R, LFE
Sampling rate : 48.0 KHz
Bit depth : 16 bits
Compression mode : Lossy
Stream size : 376 MiB (17%)
Title : Dub | DD 5.1 @ 448 kbps - BD CEE
Language : Russian
Default : Yes
Forced : Yes
Audio #2
ID : 3
Format : AC-3
Format/Info : Audio Coding 3
Mode extension : CM (complete main)
Format settings, Endianness : Big
Codec ID : A_AC3
Duration : 1h 57mn
Bit rate mode : Constant
Bit rate : 448 Kbps
Channel(s) : 6 channels
Channel positions : Front: L C R, Side: L R, LFE
Sampling rate : 48.0 KHz
Bit depth : 16 bits
Compression mode : Lossy
Stream size : 376 MiB (17%)
Title : Original | DD 5.1 @ 448 kbps
Language : English
Default : No
Forced : No
Text #1
ID : 4
Format : UTF-8
Codec ID : S_TEXT/UTF8
Codec ID/Info : UTF-8 Plain Text
Language : Russian
Default : No
Forced : No
Text #2
ID : 5
Format : UTF-8
Codec ID : S_TEXT/UTF8
Codec ID/Info : UTF-8 Plain Text
Title : Forced
Language : Russian
Default : Yes
Forced : No
Text #3
ID : 6
Format : UTF-8
Codec ID : S_TEXT/UTF8
Codec ID/Info : UTF-8 Plain Text
Title : Forced
Language : Ukrainian
Default : No
Forced : No
Text #4
ID : 7
Format : UTF-8
Codec ID : S_TEXT/UTF8
Codec ID/Info : UTF-8 Plain Text
Language : Ukrainian
Default : No
Forced : No
Text #5
ID : 8
Format : UTF-8
Codec ID : S_TEXT/UTF8
Codec ID/Info : UTF-8 Plain Text
Title : Forced
Language : English
Default : No
Forced : No
Text #6
ID : 9
Format : UTF-8
Codec ID : S_TEXT/UTF8
Codec ID/Info : UTF-8 Plain Text
Title : SDH
Language : English
Default : No
Forced : No
Text #7
ID : 10
Format : UTF-8
Codec ID : S_TEXT/UTF8
Codec ID/Info : UTF-8 Plain Text
Title : SDH-Colored
Language : English
Default : No
Forced : No
Menu
00:04:33.898 : en:(01)00:04:33:898
00:08:51.739 : en:(02)00:08:51:739
00:14:33.914 : en:(03)00:14:33:914
00:17:01.603 : en:(04)00:17:01:603
00:19:27.040 : en:(05)00:19:27:040
00:21:52.936 : en:(06)00:21:52:936
00:26:13.572 : en:(07)00:26:13:572
00:30:47.971 : en:(08)00:30:47:971
00:32:48.675 : en:(09)00:32:48:675
00:36:12.378 : en:(10)00:36:12:378
00:39:06.969 : en:(11)00:39:06:969
00:43:03.497 : en:(12)00:43:03:497
00:45:40.654 : en:(13)00:45:40:654
00:52:10.377 : en:(14)00:52:10:377
00:57:21.187 : en:(15)00:57:21:187
01:01:23.888 : en:(16)01:01:23:888
01:02:59.901 : en:(17)01:02:59:901
01:06:05.920 : en:(18)01:06:05:920
01:10:30.476 : en:(19)01:10:30:476
01:13:26.527 : en:(20)01:13:26:527
01:18:24.866 : en:(21)01:18:24:866
01:21:56.202 : en:(22)01:21:56:202
01:26:04.993 : en:(23)01:26:04:993
01:28:06.906 : en:(24)01:28:06:906
01:32:02.975 : en:(25)01:32:02:975
01:35:52.955 : en:(26)01:35:52:955
01:38:30.654 : en:(27)01:38:30:654
01:41:30.751 : en:(28)01:41:30:751
01:43:44.635 : en:(29)01:43:44:635
01:46:41.561 : en:(30)01:46:41:561
01:50:12.689 : en:(31)01:50:12:689
01:57:28.958 : en:(32)01:57:28:958

Скриншот c названием фильма

Скриншоты

[Профиль] [ЛС]
Показать сообщения:    

Текущее время: Сегодня 16:41

Часовой пояс: GMT



Вы не можете начинать темы
Вы не можете отвечать на сообщения
Вы не можете редактировать свои сообщения
Вы не можете удалять свои сообщения
Вы не можете голосовать в опросах
Вы не можете прикреплять файлы к сообщениям
Вы не можете скачивать файлы