РобоКоп / RoboCop (Жозе Падилья / José Padilha) [2014, США, фантастика, боевик, криминал , BDRip-AVC] Dub (Rus) + Dub (Ukr) + Original (Eng) + Subs

 
Автор Сообщение

Russian Mafia ®

Пол:

Стаж: 1 год 8 месяцев

Сообщений: 4253



Награды: 10 (Подробнее)

Top Releaser 4 (Количество: 1) Top Releaser 2 (Количество: 1) Mega Seeder 2 (Количество: 1)
Торрент-статистика

Создавать темы 24-Мар-2016 13:06

[Цитировать]

РобоКоп / RoboCop
«У зла нет шансов»
- Страна: США | Columbia Pictures, Metro-Goldwyn-Mayer (MGM), Strike Entertainment
Жанр: фантастика, боевик, криминал
Год выпуска: 2014
Продолжительность: 01:57:29 час.
Перевод: Профессиональный (полное дублирование)|Русский| - BluRay CEE
+ Профессиональный (полное дублирование) |Украинский| - BluRay CEE
Субтитры: Русский (forced, full), украинский (forced, full), английский (forced, full)
Оригинальная аудиодорожка: Английская
Режиссер: Жозе Падилья / José Padilha
В ролях: Юэль Киннаман, Гари Олдман, Майкл Китон, Сэмюэл Л. Джексон, Эбби Корниш, Джеки Эрл Хейли, Майкл К. Уильямс, Дженнифер Или, Джей Барушель, Марианн Жан-Батист...
Описание: 2028 год. Международный конгломерат ОмниКорп лидирует в производстве робототехники. Благодаря разработкам компании Америка успешно побеждает в войнах по всему миру. Но теперь пришло время применить технологию на американской земле. Алекс Мерфи — любящий муж, отец и отличный полицейский, оберегающий порядок в Детройте, получает на службе смертельные ранения. Специалисты ОмниКорпа, используя новейшие разработки, сохраняют ему жизнь. Алекс возвращается на службу в родной город не только с новыми сверхспособностями, но и с проблемами, с которыми не сталкивался ни один живой человек.

Качество видео: BDRip-AVC | исх. РобоКоп / RoboCop (2014) 1080p BD-Remux HDClub
Формат видео: MKV
Релиз от RG MATROSKA
Автор рипа zOJIOtOi
Видео: 1152x480p (2.40:1), 23,976 fps, H.264 ~3 200 kbps avg, 0.229 bit/pixel
Аудио #1: 48 kHz, AC3, 3/2 (L,C,R,l,r) + LFE ch, ~448.00 kbps avg | Профессиональный (полное дублирование) |Русский| - BluRay CEE
Аудио #2: 48 kHz, AC3, 3/2 (L,C,R,l,r) + LFE ch, ~448.00 kbps avg | Профессиональный (полное дублирование) |Украинский| - BluRay CEE
Аудио #3: 48 kHz, AC3, 3/2 (L,C,R,l,r) + LFE ch, ~448.00 kbps avg | Оригинал (английский)
Формат субтитров: softsub (SRT)

MediaInfo

| log x264log x264"]
avs [info]: 1152x480p 1:1 @ 2997/125 fps (cfr)
x264 [info]: using SAR=1/1
x264 [info]: using cpu capabilities: MMX2 SSE2Fast SSSE3 SSE4.2 AVX
x264 [info]: profile High, level 4.1
x264 [info]: frame I:1104 Avg QP:14.66 size: 85727
x264 [info]: frame P:36914 Avg QP:16.17 size: 33846
x264 [info]: frame B:130994 Avg QP:18.60 size: 10727
x264 [info]: consecutive B-frames: 2.4% 3.5% 8.1% 18.6% 20.4% 27.7% 9.1% 1.9% 2.2% 1.4% 1.1% 0.5% 1.2% 0.8% 0.3% 0.7%
x264 [info]: mb I I16..4: 5.9% 76.2% 17.9%
x264 [info]: mb P I16..4: 0.6% 12.9% 1.6% P16..4: 25.0% 34.5% 16.5% 3.3% 0.3% skip: 5.3%
x264 [info]: mb B I16..4: 0.1% 1.0% 0.2% B16..8: 34.3% 25.4% 5.7% direct: 5.3% skip:28.1% L0:43.4% L1:44.6% BI:12.0%
x264 [info]: 8x8 transform intra:83.7% inter:53.8%
x264 [info]: coded y,uvDC,uvAC intra: 94.4% 87.4% 69.4% inter: 26.8% 18.0% 4.5%
x264 [info]: i16 v,h,dc,p: 38% 14% 5% 43%
x264 [info]: i8 v,h,dc,ddl,ddr,vr,hd,vl,hu: 8% 8% 10% 10% 13% 12% 13% 11% 13%
x264 [info]: i4 v,h,dc,ddl,ddr,vr,hd,vl,hu: 10% 11% 4% 9% 15% 14% 14% 11% 13%
x264 [info]: i8c dc,h,v,p: 43% 24% 17% 15%
x264 [info]: Weighted P-Frames: Y:3.4% UV:1.8%
x264 [info]: ref P L0: 46.9% 9.5% 17.4% 6.1% 5.3% 3.5% 3.2% 1.6% 1.6% 1.2% 1.3% 1.0% 1.1% 0.2% 0.0%
x264 [info]: ref B L0: 69.9% 12.3% 6.0% 3.2% 2.3% 2.0% 1.4% 0.9% 0.7% 0.7% 0.4% 0.2%
x264 [info]: ref B L1: 92.2% 7.8%
x264 [info]: kb/s:3199.95
x264 [total]: encoded 169012 frames, 2.27 fps, 3199.95 kb/s
Общее
Уникальный идентификатор : 184691085683005656506259764563125175586 (0x8AF235909C4056B0A7F77A0A20F78522)
Полное имя : D:\my rips\RoboCop.2014.Rus.Ukr.Eng.Subs.BDRip-AVC.by.zOJIOtOi.mkv
Формат : Matroska
Версия формата : Version 4 / Version 2
Размер файла : 3,67 Гбайт
Продолжительность : 1 ч. 57 м.
Общий поток : 4467 Кбит/сек
Название фильма : RoboCop.2014.BDRip-AVC.by.zOJIOtOi
Дата кодирования : UTC 2014-05-16 19:00:42
Программа кодирования : mkvmerge v6.1.0 ('Old Devil') built on Mar 4 2013 09:10:42
Библиотека кодирования : libebml v1.3.0 + libmatroska v1.4.0
Видео
Идентификатор : 1
Формат : AVC
Формат/Информация : Advanced Video Codec
Профиль формата : High@L4.1
Параметр CABAC формата : Да
Параметр ReFrames формата : 13 кадров
Идентификатор кодека : V_MPEG4/ISO/AVC
Продолжительность : 1 ч. 57 м.
Битрейт : 3095 Кбит/сек
Ширина : 1152 пикселя
Высота : 480 пикселей
Соотношение сторон : 2,40:1
Режим частоты кадров : Постоянный
Частота кадров : 23,976 кадра/сек
Цветовое пространство : YUV
Субдискретизация насыщенности : 4:2:0
Битовая глубина : 8 бит
Тип развёртки : Прогрессивная
Бит/(Пиксели*Кадры) : 0.229
Размер потока : 2,49 Гбайт (68%)
Заголовок : RoboCop.2014.BDRip-AVC.by.zOJIOtOi
Библиотека кодирования : x264 core 130 r2273 b3065e6
Настройки программы : cabac=1 / ref=13 / deblock=1:-3:-3 / analyse=0x3:0x133 / me=umh / subme=11 / psy=1 / psy_rd=1.00:0.00 / mixed_ref=1 / me_range=48 / chroma_me=1 / trellis=2 / 8x8dct=1 / cqm=0 / deadzone=21,11 / fast_pskip=1 / chroma_qp_offset=-2 / threads=6 / lookahead_threads=1 / sliced_threads=0 / nr=0 / decimate=1 / interlaced=0 / bluray_compat=0 / constrained_intra=0 / bframes=15 / b_pyramid=2 / b_adapt=2 / b_bias=0 / direct=1 / weightb=1 / open_gop=0 / weightp=2 / keyint=240 / keyint_min=23 / scenecut=40 / intra_refresh=0 / rc_lookahead=60 / rc=crf / mbtree=0 / crf=17.2 / qcomp=0.70 / qpmin=0 / qpmax=69 / qpstep=4 / vbv_maxrate=50000 / vbv_bufsize=62500 / crf_max=0.0 / nal_hrd=none / ip_ratio=1.40 / pb_ratio=1.30 / aq=1:1.00
Язык : English
Default : Да
Forced : Нет
Аудио #1
Идентификатор : 2
Формат : AC-3
Формат/Информация : Audio Coding 3
Расширение режима : CM (complete main)
Параметр Endianness формата : Big
Идентификатор кодека : A_AC3
Продолжительность : 1 ч. 57 м.
Вид битрейта : Постоянный
Битрейт : 448 Кбит/сек
Каналы : 6 каналов
Расположение каналов : Front: L C R, Side: L R, LFE
Частота : 48,0 КГц
Битовая глубина : 16 бит
Метод сжатия : С потерями
Размер потока : 376 Мбайт (10%)
Заголовок : Профессиональный (полное дублирование) | DD 5.1 @ 448 kbps - BD CEE
Язык : Russian
Default : Да
Forced : Да
Аудио #2
Идентификатор : 3
Формат : AC-3
Формат/Информация : Audio Coding 3
Расширение режима : CM (complete main)
Параметр Endianness формата : Big
Идентификатор кодека : A_AC3
Продолжительность : 1 ч. 57 м.
Вид битрейта : Постоянный
Битрейт : 448 Кбит/сек
Каналы : 6 каналов
Расположение каналов : Front: L C R, Side: L R, LFE
Частота : 48,0 КГц
Битовая глубина : 16 бит
Метод сжатия : С потерями
Размер потока : 376 Мбайт (10%)
Заголовок : Профессиональный (полное дублирование) | DD 5.1 @ 448 kbps - BD CEE
Язык : Ukrainian
Default : Нет
Forced : Нет
Аудио #3
Идентификатор : 4
Формат : AC-3
Формат/Информация : Audio Coding 3
Расширение режима : CM (complete main)
Параметр Endianness формата : Big
Идентификатор кодека : A_AC3
Продолжительность : 1 ч. 57 м.
Вид битрейта : Постоянный
Битрейт : 448 Кбит/сек
Каналы : 6 каналов
Расположение каналов : Front: L C R, Side: L R, LFE
Частота : 48,0 КГц
Битовая глубина : 16 бит
Метод сжатия : С потерями
Размер потока : 376 Мбайт (10%)
Заголовок : Оригинал (английский) | DD 5.1 @ 448 kbps
Язык : English
Default : Нет
Forced : Нет
Текст #1
Идентификатор : 5
Формат : UTF-8
Идентификатор кодека : S_TEXT/UTF8
Идентификатор кодека/Информация : UTF-8 Plain Text
Заголовок : Full
Язык : Russian
Default : Нет
Forced : Нет
Текст #2
Идентификатор : 6
Формат : UTF-8
Идентификатор кодека : S_TEXT/UTF8
Идентификатор кодека/Информация : UTF-8 Plain Text
Заголовок : Forced
Язык : Russian
Default : Да
Forced : Нет
Текст #3
Идентификатор : 7
Формат : UTF-8
Идентификатор кодека : S_TEXT/UTF8
Идентификатор кодека/Информация : UTF-8 Plain Text
Заголовок : Full
Язык : Ukrainian
Default : Нет
Forced : Нет
Текст #4
Идентификатор : 8
Формат : UTF-8
Идентификатор кодека : S_TEXT/UTF8
Идентификатор кодека/Информация : UTF-8 Plain Text
Заголовок : Forced
Язык : Ukrainian
Default : Нет
Forced : Нет
Текст #5
Идентификатор : 9
Формат : UTF-8
Идентификатор кодека : S_TEXT/UTF8
Идентификатор кодека/Информация : UTF-8 Plain Text
Заголовок : Forced
Язык : English
Default : Нет
Forced : Нет
Текст #6
Идентификатор : 10
Формат : UTF-8
Идентификатор кодека : S_TEXT/UTF8
Идентификатор кодека/Информация : UTF-8 Plain Text
Заголовок : SDH
Язык : English
Default : Нет
Forced : Нет
Текст #7
Идентификатор : 11
Формат : UTF-8
Идентификатор кодека : S_TEXT/UTF8
Идентификатор кодека/Информация : UTF-8 Plain Text
Заголовок : SDH-Colored
Язык : English
Default : Нет
Forced : Нет
Меню
00:04:33.898 : en:(01)00:04:33:898
00:08:51.739 : en:(02)00:08:51:739
00:14:33.914 : en:(03)00:14:33:914
00:17:01.603 : en:(04)00:17:01:603
00:19:27.040 : en:(05)00:19:27:040
00:21:52.936 : en:(06)00:21:52:936
00:26:13.572 : en:(07)00:26:13:572
00:30:47.971 : en:(08)00:30:47:971
00:32:48.675 : en:(09)00:32:48:675
00:36:12.378 : en:(10)00:36:12:378
00:39:06.969 : en:(11)00:39:06:969
00:43:03.497 : en:(12)00:43:03:497
00:45:40.654 : en:(13)00:45:40:654
00:52:10.377 : en:(14)00:52:10:377
00:57:21.187 : en:(15)00:57:21:187
01:01:23.888 : en:(16)01:01:23:888
01:02:59.901 : en:(17)01:02:59:901
01:06:05.920 : en:(18)01:06:05:920
01:10:30.476 : en:(19)01:10:30:476
01:13:26.527 : en:(20)01:13:26:527
01:18:24.866 : en:(21)01:18:24:866
01:21:56.202 : en:(22)01:21:56:202
01:26:04.993 : en:(23)01:26:04:993
01:28:06.906 : en:(24)01:28:06:906
01:32:02.975 : en:(25)01:32:02:975
01:35:52.955 : en:(26)01:35:52:955
01:38:30.654 : en:(27)01:38:30:654
01:41:30.751 : en:(28)01:41:30:751
01:43:44.635 : en:(29)01:43:44:635
01:46:41.561 : en:(30)01:46:41:561
01:50:12.689 : en:(31)01:50:12:689
01:57:28.958 : en:(32)01:57:28:958

Скриншоты


[Профиль] [ЛС]
Показать сообщения:    

Текущее время: Сегодня 03:10

Часовой пояс: GMT



Вы не можете начинать темы
Вы не можете отвечать на сообщения
Вы не можете редактировать свои сообщения
Вы не можете удалять свои сообщения
Вы не можете голосовать в опросах
Вы не можете прикреплять файлы к сообщениям
Вы не можете скачивать файлы