РобоКоп / RoboCop (Жозе Падилья / Jose Padilha) [2014, США, фантастика, боевик, криминал, BDRip 720p] Dub + VO (Есарев) + Ukr + Sub Rus, Eng + Original Eng

 
Автор Сообщение

Russian Mafia ®

Пол:

Стаж: 1 год 8 месяцев

Сообщений: 4246



Награды: 10 (Подробнее)

Top Releaser 3 (Количество: 1) Mega Seeder 4 (Количество: 1) Top Releaser 2 (Количество: 1)
Торрент-статистика

Создавать темы 24-Мар-2016 13:04

[Цитировать]

РобоКопRoboCop«У зла нет шансов»- Страна: США
Жанр: фантастика, боевик, криминал
Год выпуска: 2014
Продолжительность: 01:57:30-Перевод: Профессиональный (полное дублирование), Одноголосый закадровый (Д. Есарев)
Субтитры: русские (Форсированные + Полные), украинские (Форсированные + Полные), английские (Форсированные + Полные)
Режиссер: Жозе Падилья / José Padilha
В ролях:
Юэль Киннаман, Гари Олдман, Майкл Китон, Эбби Корниш, Джеки Эрл Хейли, Сэмюэл Л. Джексон, Майкл К. Уильямс, Дженнифер Или, Марианн Жан-Батист, Айми Гарсиа
Дублёры: Денис Некрасов (Alex Murphy / RoboCop), Никита Прозоровский (Dr. Dennett Norton), Владимир Зайцев (Raymond Sellars), Андрей Бархударов (Rick Mattox), Владимир Антоник (Pat Novak), Лариса Некипелова (Liz Kline), Инна Королёва (Chief Karen Dean), Рамиля Искандер (Jae Kim), Александр Гаврилин (Tom Pope), Борис Шувалов (Antoine Vallon), Александр Новиков (Mayor Durant), Олег Форостенко (Senator Hubert Dreyfuss)-Описание: 2028 год. Международный конгломерат ОмниКорп лидирует в производстве робототехники. Благодаря разработкам компании Америка успешно побеждает в войнах по всему миру. Но теперь пришло время применить технологию на американской земле. Алекс Мерфи - любящий муж, отец и отличный полицейский, оберегающий порядок в Детройте, получает на службе смертельные ранения. Специалисты ОмниКорпа, используя новейшие разработки, сохраняют ему жизнь. Алекс возвращается на службу в родной город не только с новыми сверхспособностями, но и с проблемами, с которыми не сталкивался ни один живой человек.-
MPAA: PG-13 - Детям до 13 лет просмотр не желателен-Перевод Дмитрия Есарева доступен благодаря будулайроманову, mihey10 и mihaildns, работа со звуком - Переводман.
-Качество: BDRip
Контейнер: MKV
Сэмпл
Видео: AVC, 1280x534 (2.40:1), 6737 kbps, 23,976 fps, 0,411 bpp
Аудио №1: русский / DTS / 5.1 / 48 kHz / 768 kbps / 24 bit |Дубляж|
Аудио №2: русский / AC3 / 5.1 / 48 kHz / 640 kbps / 16 bit |Одноголосый закадровый, Д. Есарев|
Аудио №3: украинский / AC3 / 5.1 / 48 kHz / 448 kbps / 16 bit |Дубляж|
Аудио №4: английский / AC3 / 5.1 / 48 kHz / 640 kbps / 16 bit |Оригинал|
Аудио №5: английский / AC3 / 5.1 / 48 kHz / 448 kbps / 16 bit |Комментарии|
Навигация по главам: есть-

Скриншоты

Media Info

General
Unique ID : 203330048220470301192194081748469130942 (0x98F7F15E5D8547499A5965D3AE03A6BE)
Complete name : D:\RoboCop.2014.BDRip.720p.Dub.VO.Ukr.Orig.Subs(Rus.Ukr.Eng).mkv
Format : Matroska
Format version : Version 4 / Version 2
File size : 8.09 GiB
Duration : 1h 57mn
Overall bit rate : 9 852 Kbps
Movie name : РобоКоп 2014
Encoded date : UTC 2014-05-17 08:17:24
Writing application : mkvmerge v6.6.0 ('The Edge Of The In Between') built on Dec 1 2013 17:55:00
Writing library : libebml v1.3.0 + libmatroska v1.4.1
Video
ID : 1
Format : AVC
Format/Info : Advanced Video Codec
Format profile : High@L4.1
Format settings, CABAC : Yes
Format settings, ReFrames : 9 frames
Codec ID : V_MPEG4/ISO/AVC
Duration : 1h 57mn
Bit rate : 6 712 Kbps
Width : 1 280 pixels
Height : 534 pixels
Display aspect ratio : 2.40:1
Frame rate mode : Constant
Frame rate : 23.976 fps
Color space : YUV
Chroma subsampling : 4:2:0
Bit depth : 8 bits
Scan type : Progressive
Bits/(Pixel*Frame) : 0.410
Stream size : 5.51 GiB (68%)
Writing library : x264 core 142 r2409 d6b4e63
Encoding settings : cabac=1 / ref=9 / deblock=1:-1:-1 / analyse=0x3:0x133 / me=umh / subme=11 / psy=1 / psy_rd=1.00:0.15 / mixed_ref=1 / me_range=32 / chroma_me=1 / trellis=2 / 8x8dct=1 / cqm=0 / deadzone=21,11 / fast_pskip=0 / chroma_qp_offset=-3 / threads=12 / lookahead_threads=3 / sliced_threads=0 / nr=0 / decimate=1 / interlaced=0 / bluray_compat=0 / constrained_intra=0 / bframes=16 / b_pyramid=2 / b_adapt=2 / b_bias=0 / direct=3 / weightb=1 / open_gop=0 / weightp=2 / keyint=240 / keyint_min=23 / scenecut=40 / intra_refresh=0 / rc_lookahead=60 / rc=crf / mbtree=0 / crf=14.7 / qcomp=0.60 / qpmin=0 / qpmax=69 / qpstep=4 / vbv_maxrate=62500 / vbv_bufsize=78125 / crf_max=0.0 / nal_hrd=none / filler=0 / ip_ratio=1.40 / pb_ratio=1.30 / aq=2:0.80
Language : English
Default : Yes
Forced : No
Audio #1
ID : 2
Format : DTS
Format/Info : Digital Theater Systems
Mode : 16
Format settings, Endianness : Big
Codec ID : A_DTS
Duration : 1h 57mn
Bit rate mode : Constant
Bit rate : 768 Kbps
Channel(s) : 6 channels
Channel positions : Front: L C R, Side: L R, LFE
Sampling rate : 48.0 KHz
Bit depth : 24 bits
Compression mode : Lossy
Stream size : 645 MiB (8%)
Title : Dub
Language : Russian
Default : Yes
Forced : Yes
Audio #2
ID : 3
Format : AC-3
Format/Info : Audio Coding 3
Mode extension : CM (complete main)
Format settings, Endianness : Big
Codec ID : A_AC3
Duration : 1h 57mn
Bit rate mode : Constant
Bit rate : 640 Kbps
Channel(s) : 6 channels
Channel positions : Front: L C R, Side: L R, LFE
Sampling rate : 48.0 KHz
Bit depth : 16 bits
Compression mode : Lossy
Stream size : 538 MiB (6%)
Title : VO |Esarev|
Language : Russian
Default : No
Forced : No
Audio #3
ID : 4
Format : AC-3
Format/Info : Audio Coding 3
Mode extension : CM (complete main)
Format settings, Endianness : Big
Codec ID : A_AC3
Duration : 1h 57mn
Bit rate mode : Constant
Bit rate : 448 Kbps
Channel(s) : 6 channels
Channel positions : Front: L C R, Side: L R, LFE
Sampling rate : 48.0 KHz
Bit depth : 16 bits
Compression mode : Lossy
Stream size : 377 MiB (5%)
Title : Dub
Language : Ukrainian
Default : No
Forced : No
Audio #4
ID : 5
Format : AC-3
Format/Info : Audio Coding 3
Mode extension : CM (complete main)
Format settings, Endianness : Big
Codec ID : A_AC3
Duration : 1h 57mn
Bit rate mode : Constant
Bit rate : 640 Kbps
Channel(s) : 6 channels
Channel positions : Front: L C R, Side: L R, LFE
Sampling rate : 48.0 KHz
Bit depth : 16 bits
Compression mode : Lossy
Stream size : 538 MiB (6%)
Title : Orig
Language : English
Default : No
Forced : No
Audio #5
ID : 6
Format : AC-3
Format/Info : Audio Coding 3
Mode extension : CM (complete main)
Format settings, Endianness : Big
Codec ID : A_AC3
Duration : 1h 57mn
Bit rate mode : Constant
Bit rate : 448 Kbps
Channel(s) : 6 channels
Channel positions : Front: L C R, Side: L R, LFE
Sampling rate : 48.0 KHz
Bit depth : 16 bits
Compression mode : Lossy
Stream size : 377 MiB (5%)
Title : Descriptive
Language : English
Default : No
Forced : No
Text #1
ID : 7
Format : UTF-8
Codec ID : S_TEXT/UTF8
Codec ID/Info : UTF-8 Plain Text
Title : Forced
Language : Russian
Default : Yes
Forced : No
Text #2
ID : 8
Format : UTF-8
Codec ID : S_TEXT/UTF8
Codec ID/Info : UTF-8 Plain Text
Title : Full
Language : Russian
Default : No
Forced : No
Text #3
ID : 9
Format : UTF-8
Codec ID : S_TEXT/UTF8
Codec ID/Info : UTF-8 Plain Text
Title : Forced
Language : Ukrainian
Default : No
Forced : No
Text #4
ID : 10
Format : UTF-8
Codec ID : S_TEXT/UTF8
Codec ID/Info : UTF-8 Plain Text
Title : Full
Language : Ukrainian
Default : No
Forced : No
Text #5
ID : 11
Format : UTF-8
Codec ID : S_TEXT/UTF8
Codec ID/Info : UTF-8 Plain Text
Title : Forced
Language : English
Default : No
Forced : No
Text #6
ID : 12
Format : UTF-8
Codec ID : S_TEXT/UTF8
Codec ID/Info : UTF-8 Plain Text
Title : Full
Language : English
Default : No
Forced : No
Menu
00:00:00.000 : en:00:00:00.000
00:04:33.898 : en:00:04:33.898
00:08:51.739 : en:00:08:51.739
00:14:33.913 : en:00:14:33.913
00:17:01.602 : en:00:17:01.602
00:19:27.039 : en:00:19:27.039
00:21:52.935 : en:00:21:52.935
00:26:13.570 : en:00:26:13.570
00:30:47.971 : en:00:30:47.971
00:32:48.674 : en:00:32:48.674
00:36:12.378 : en:00:36:12.378
00:39:06.969 : en:00:39:06.969
00:43:03.496 : en:00:43:03.496
00:45:40.653 : en:00:45:40.653
00:52:10.376 : en:00:52:10.376
00:57:21.186 : en:00:57:21.186
01:01:23.887 : en:01:01:23.887
01:02:59.900 : en:01:02:59.900
01:06:05.920 : en:01:06:05.920
01:10:30.475 : en:01:10:30.475
01:13:26.527 : en:01:13:26.527
01:18:24.865 : en:01:18:24.865
01:21:56.202 : en:01:21:56.202
01:26:04.993 : en:01:26:04.993
01:28:06.905 : en:01:28:06.905
01:32:02.975 : en:01:32:02.975
01:35:52.954 : en:01:35:52.954
01:38:30.654 : en:01:38:30.654
01:41:30.751 : en:01:41:30.751
01:43:44.635 : en:01:43:44.635
01:46:41.560 : en:01:46:41.560
01:50:12.689 : en:01:50:12.689
[Профиль] [ЛС]
Показать сообщения:    

Текущее время: Сегодня 09:59

Часовой пояс: GMT



Вы не можете начинать темы
Вы не можете отвечать на сообщения
Вы не можете редактировать свои сообщения
Вы не можете удалять свои сообщения
Вы не можете голосовать в опросах
Вы не можете прикреплять файлы к сообщениям
Вы не можете скачивать файлы