РобоКоп / RoboCop (Жозе Падилья / Jose Padilha) [2014, США, фантастика, боевик, криминал, BDRip 1080p] Dub + VO (Есарев) + Ukr + Original Eng + sub (Rus, Eng, Ukr)

 
Автор Сообщение

Russian Mafia ®

Пол:

Стаж: 1 год 8 месяцев

Сообщений: 4257



Награды: 10 (Подробнее)

Top Releaser 4 (Количество: 1) Mega Seeder 2 (Количество: 1) Mega Seeder 5 (Количество: 1)
Торрент-статистика

Создавать темы 24-Мар-2016 13:03

[Цитировать]

РобоКоп / RoboCop- Год выпуска: 2014
Страна: США
Жанр: фантастика, боевик, криминал
Продолжительность: 01:57:29
Перевод: Профессиональный (полное дублирование)
+ Одноголосый закадровый Д.Есарев
Оригинальная звуковая дорожка: English
Субтитры: Russian, Ukrainian, English-Режиссер: Жозе Падилья / José Padilha
В ролях: Юэль Киннаман, Гари Олдман, Майкл Китон, Эбби Корниш, Джеки Эрл Хейли, Сэмюэл Л. Джексон, Майкл К. Уильямс, Дженнифер Или, Марианн Жан-Батист, Джей Барушель
О фильме: 2028 год. Международный конгломерат ОмниКорп лидирует в производстве робототехники. Благодаря разработкам компании Америка успешно побеждает в войнах по всему миру. Но теперь пришло время применить технологию на американской земле. Алекс Мерфи - любящий муж, отец и отличный полицейский, оберегающий порядок в Детройте, получает на службе смертельные ранения. Специалисты ОмниКорпа, используя новейшие разработки, сохраняют ему жизнь. Алекс возвращается на службу в родной город не только с новыми сверхспособностями, но и с проблемами, с которыми не сталкивался ни один живой человек.-NTb!
Релиз: by madoff
Формат: MKV
Видео: 1920x800 at 23.976 fps, x264@L4.1, ~14,5 mbps avg
Аудио #1: Russian: 48 kHz, DTS, 3/2 (L,C,R,l,r) + LFE ch, ~768 kbps avg |Дубляж, Blu-ray CEE|
Аудио #2: Russian: 48 kHz, DTS, 3/2 (L,C,R,l,r) + LFE ch, ~1509 kbps avg |Одноголосый закадровый, Д.Есарев|
Аудио #3: Ukrainian: 48 kHz, AC3, 3/2 (L,C,R,l,r) + LFE ch, ~448.00 kbps avg |Дубляж, Blu-ray CEE|
Аудио #4: English: 48 kHz, DTS, 3/2 (L,C,R,l,r) + LFE ch, ~1509 kbps avg
Семпл-

Source vs Encode





-

mInfo

Формат : Matroska
Версия формата : Version 2
Размер файла : 15,4 Гбайт
Продолжительность : 1 ч. 57 м.
Общий поток : 18,7 Мбит/сек
Название фильма : RoboCop (2014) - Release for HDCLUB
Дата кодирования : UTC 2014-05-16 20:57:53
Программа кодирования : mkvmerge v5.7.0 ('The Whirlwind') built on Jul 8 2012 20:08:51
Библиотека кодирования : libebml v1.2.3 + libmatroska v1.3.0
Видео
Идентификатор : 1
Формат : AVC
Формат/Информация : Advanced Video Codec
Профиль формата : High@L4.1
Параметр CABAC формата : Да
Параметр ReFrames формата : 5 кадров
Идентификатор кодека : V_MPEG4/ISO/AVC
Продолжительность : 1 ч. 57 м.
Битрейт : 14,5 Мбит/сек
Ширина : 1920 пикселей
Высота : 800 пикселей
Соотношение сторон : 2,40:1
Режим частоты кадров : Постоянный
Частота кадров : 23,976 кадра/сек
Цветовое пространство : YUV
Субдискретизация насыщенности : 4:2:0
Битовая глубина : 8 бит
Тип развёртки : Прогрессивная
Бит/(Пиксели*Кадры) : 0.394
Размер потока : 11,6 Гбайт (75%)
Библиотека кодирования : x264 core 142 r2389kMod 956c8d8
Настройки программы : cabac=1 / ref=5 / deblock=1:-3:-3 / analyse=0x3:0x133 / me=tesa / subme=10 / psy=1 / fade_compensate=0.00 / psy_rd=1.03:0.00 / mixed_ref=1 / me_range=24 / chroma_me=1 / trellis=2 / 8x8dct=1 / cqm=0 / deadzone=21,11 / fast_pskip=1 / chroma_qp_offset=-2 / threads=16 / lookahead_threads=2 / sliced_threads=0 / nr=0 / decimate=1 / interlaced=0 / bluray_compat=0 / constrained_intra=0 / fgo=0 / bframes=9 / b_pyramid=2 / b_adapt=2 / b_bias=0 / direct=3 / weightb=1 / open_gop=0 / weightp=2 / keyint=250 / keyint_min=23 / scenecut=40 / intra_refresh=0 / rc_lookahead=200 / rc=2pass / mbtree=0 / bitrate=14500 / ratetol=1.0 / qcomp=0.78 / qpmin=0 / qpmax=69 / qpstep=4 / cplxblur=20.0 / qblur=0.5 / vbv_maxrate=50000 / vbv_bufsize=62500 / nal_hrd=none / filler=0 / ip_ratio=1.20 / pb_ratio=1.10 / aq=1:0.68 / zones=52116,52612,b=17000/75862,75979,b=18000/94835,95087,b=17000/105651,105798,b=18000/113564,113741,b=17000/124334,124575,b=17000/136640,136820,b=17000/151823,152706,b=17500
Язык : English
Default : Да
Forced : Нет
Аудио #1
Идентификатор : 2
Формат : DTS
Формат/Информация : Digital Theater Systems
Режим : 16
Параметр Endianness формата : Big
Идентификатор кодека : A_DTS
Продолжительность : 1 ч. 57 м.
Вид битрейта : Постоянный
Битрейт : 768 Кбит/сек
Каналы : 6 каналов
Расположение каналов : Front: L C R, Side: L R, LFE
Частота : 48,0 КГц
Битовая глубина : 24 бит
Метод сжатия : С потерями
Размер потока : 645 Мбайт (4%)
Заголовок : |Дубляж, BluRay CEE|
Язык : Russian
Default : Да
Forced : Нет
Аудио #2
Идентификатор : 3
Формат : DTS
Формат/Информация : Digital Theater Systems
Режим : 16
Параметр Endianness формата : Big
Идентификатор кодека : A_DTS
Продолжительность : 1 ч. 57 м.
Вид битрейта : Постоянный
Битрейт : 1509 Кбит/сек
Каналы : 6 каналов
Расположение каналов : Front: L C R, Side: L R, LFE
Частота : 48,0 КГц
Битовая глубина : 24 бит
Метод сжатия : С потерями
Размер потока : 1,24 Гбайт (8%)
Заголовок : |Одноголосый закадровый,Д.Есарев|
Язык : Russian
Default : Нет
Forced : Нет
Аудио #3
Идентификатор : 4
Формат : AC-3
Формат/Информация : Audio Coding 3
Расширение режима : CM (complete main)
Параметр Endianness формата : Big
Идентификатор кодека : A_AC3
Продолжительность : 1 ч. 57 м.
Вид битрейта : Постоянный
Битрейт : 448 Кбит/сек
Каналы : 6 каналов
Расположение каналов : Front: L C R, Side: L R, LFE
Частота : 48,0 КГц
Битовая глубина : 16 бит
Метод сжатия : С потерями
Размер потока : 376 Мбайт (2%)
Заголовок : |Дубляж, BluRay CEE|
Язык : Ukrainian
Default : Нет
Forced : Нет
Аудио #4
Идентификатор : 5
Формат : DTS
Формат/Информация : Digital Theater Systems
Режим : 16
Параметр Endianness формата : Big
Идентификатор кодека : A_DTS
Продолжительность : 1 ч. 57 м.
Вид битрейта : Постоянный
Битрейт : 1509 Кбит/сек
Каналы : 6 каналов
Расположение каналов : Front: L C R, Side: L R, LFE
Частота : 48,0 КГц
Битовая глубина : 24 бит
Метод сжатия : С потерями
Размер потока : 1,24 Гбайт (8%)
Язык : English
Default : Нет
Forced : Нет
Текст #1
Идентификатор : 6
Формат : UTF-8
Идентификатор кодека : S_TEXT/UTF8
Идентификатор кодека/Информация : UTF-8 Plain Text
Язык : Russian
Default : Нет
Forced : Нет
Текст #2
Идентификатор : 7
Формат : UTF-8
Идентификатор кодека : S_TEXT/UTF8
Идентификатор кодека/Информация : UTF-8 Plain Text
Язык : Ukrainian
Default : Нет
Forced : Нет
Текст #3
Идентификатор : 8
Формат : UTF-8
Идентификатор кодека : S_TEXT/UTF8
Идентификатор кодека/Информация : UTF-8 Plain Text
Заголовок : Forced
Язык : English
Default : Нет
Forced : Нет
Текст #4
Идентификатор : 9
Формат : UTF-8
Идентификатор кодека : S_TEXT/UTF8
Идентификатор кодека/Информация : UTF-8 Plain Text
Язык : English
Default : Нет
Forced : Нет
Меню
00:00:00.000 : :00:00:00.000
00:04:33.899 : :00:04:33.899
00:08:51.740 : :00:08:51.740
00:14:33.915 : :00:14:33.915
00:17:01.604 : :00:17:01.604
00:19:27.041 : :00:19:27.041
00:21:52.937 : :00:21:52.937
00:26:13.572 : :00:26:13.572
00:30:47.971 : :00:30:47.971
00:32:48.675 : :00:32:48.675
00:36:12.379 : :00:36:12.379
00:39:06.970 : :00:39:06.970
00:43:03.498 : :00:43:03.498
00:45:40.655 : :00:45:40.655
00:52:10.377 : :00:52:10.377
00:57:21.188 : :00:57:21.188
01:01:23.889 : :01:01:23.889
01:02:59.901 : :01:02:59.901
01:06:05.920 : :01:06:05.920
01:10:30.476 : :01:10:30.476
01:13:26.527 : :01:13:26.527
01:18:24.867 : :01:18:24.867
01:21:56.203 : :01:21:56.203
01:26:04.993 : :01:26:04.993
01:28:06.907 : :01:28:06.907
01:32:02.976 : :01:32:02.976
01:35:52.956 : :01:35:52.956
01:38:30.655 : :01:38:30.655
01:41:30.751 : :01:41:30.751
01:43:44.635 : :01:43:44.635
01:46:41.562 : :01:46:41.562
01:50:12.689 : :01:50:12.689
-Цитата:
* Сохранены оригинальные чаптеры как на Blu-ray.
* Авторский перевод и озвучка Дмитрия Есарева. Перевод доступен благодаря будулайроманову, mihey10 и mihaildns, работа со звуком - Переводман
[Профиль] [ЛС]
Показать сообщения:    

Текущее время: Сегодня 00:31

Часовой пояс: GMT



Вы не можете начинать темы
Вы не можете отвечать на сообщения
Вы не можете редактировать свои сообщения
Вы не можете удалять свои сообщения
Вы не можете голосовать в опросах
Вы не можете прикреплять файлы к сообщениям
Вы не можете скачивать файлы