РобоКоп / RoboCop (2014) Blu-Ray Remux 1080p | D | Лицензия

 
Автор Сообщение

Russian Mafia ®

Пол:

Стаж: 1 год 8 месяцев

Сообщений: 4256



Награды: 10 (Подробнее)

За внесенный вклад в развитие сайта (Количество: 1) Mega Seeder 3 (Количество: 1) Mega Seeder 2 (Количество: 1)
Торрент-статистика

Создавать темы 24-Мар-2016 12:59

[Цитировать]

Информация о фильме
Название: Робокоп
Оригинальное название: RoboCop
Год выпуска: 2014
Жанр: Фантастика, боевик, криминал, ремейк
Выпущено: США, Columbia Pictures, Metro-Goldwyn-Mayer (MGM), Strike Entertainment
Режиссер: Жозе Падилья
В ролях: Юэль Киннаман, Гари Олдман, Майкл Китон, Эбби Корниш, Джей Барушель, Сэмюэл Л. Джексон, Айми Гарсиа, Дженнифер Или, Джеки Эрл Хейли, Майкл К. Уильямс
О фильме: Алекс Мерфи, любящий муж, отец и хороший полицейский, борется с лавиной преступности и коррупции, обрушившейся на Детройт. Его, тяжело раненного при исполнении служебных обязанностей, OmniCorp решает задействовать в своем робототехническом эксперименте, чтобы спасти герою жизнь. Алекс возвращается на улицы города, имея в багаже новые способности, но задаваясь вопросами, с которыми человеку никогда ранее не приходилось сталкиваться.

Выпущено: США / Metro-Goldwyn-Mayer (MGM), Columbia Pictures, Strike Entertainment
Продолжительность: 01:57:29
Озвучивание: Дублированное [лицензия]
Файл
Качество: Blu-Ray Remux (1080p)
Видео: MPEG-4 AVC, 26286 Кбит/с, 1920x1080, 23.976 кадр/с
Аудио: Русский (DTS, 6 ch, 768 Кбит/с), украинский (AC3, 6 ch, 448 Кбит/с), английский (DTS, 6 ch, 1510 Кбит/с)
Размер: 23.69 ГБ
Субтитры: Русский (forced, full), украинский (forced, full), английский (forced, full, SDH)--

NFO

Общее
Уникальный идентификатор : 204199668561529988490138061037516183551 (0x999F6CF6324B9A7BAE4EAA94EA6157FF)
Полное имя : РобоКоп-RoboCop.2014.BDRemux.mkv
Формат : Matroska
Версия формата : Version 2
Размер файла : 23,7 Гбайт
Продолжительность : 1 ч. 57 м.
Режим общего битрейта : Переменный
Общий поток : 28,9 Мбит/сек
Название фильма : РобоКоп-RoboCop.2014.BDRemux
Дата кодирования : UTC 2014-05-16 11:39:24
Программа кодирования : mkvmerge v5.8.0 ('No Sleep / Pillow') built on Sep 2 2012 15:37:04
Библиотека кодирования : libebml v1.2.3 + libmatroska v1.3.0
Видео
Идентификатор : 1
Формат : AVC
Формат/Информация : Advanced Video Codec
Профиль формата : [email protected]/* */
Параметр CABAC формата : Да
Параметр ReFrames формата : 4 кадра
Режим смешивания : Container [email protected]/* */
Идентификатор кодека : V_MPEG4/ISO/AVC
Продолжительность : 1 ч. 57 м.
Вид битрейта : Переменный
Битрейт : 25,6 Мбит/сек
Максимальный битрейт : 32,0 Мбит/сек
Ширина : 1920 пикселей
Высота : 1080 пикселей
Соотношение сторон : 16:9
Режим частоты кадров : Постоянный
Частота кадров : 23,976 кадра/сек
Цветовое пространство : YUV
Субдискретизация насыщенности : 4:2:0
Битовая глубина : 8 бит
Тип развёртки : Прогрессивная
Бит/(Пиксели*Кадры) : 0.514
Размер потока : 21,0 Гбайт (89%)
Заголовок : РобоКоп-RoboCop.2014.BDRemux
Язык : English
Default : Нет
Forced : Нет
Аудио #1
Идентификатор : 2
Формат : DTS
Формат/Информация : Digital Theater Systems
Режим : 16
Параметр Endianness формата : Big
Идентификатор кодека : A_DTS
Продолжительность : 1 ч. 57 м.
Вид битрейта : Постоянный
Битрейт : 768 Кбит/сек
Каналы : 6 каналов
Расположение каналов : Front: L C R, Side: L R, LFE
Частота : 48,0 КГц
Битовая глубина : 24 бит
Метод сжатия : С потерями
Размер потока : 645 Мбайт (3%)
Язык : Russian
Default : Да
Forced : Нет
Аудио #2
Идентификатор : 3
Формат : AC-3
Формат/Информация : Audio Coding 3
Расширение режима : CM (complete main)
Параметр Endianness формата : Big
Идентификатор кодека : A_AC3
Продолжительность : 1 ч. 57 м.
Вид битрейта : Постоянный
Битрейт : 448 Кбит/сек
Каналы : 6 каналов
Расположение каналов : Front: L C R, Side: L R, LFE
Частота : 48,0 КГц
Битовая глубина : 16 бит
Метод сжатия : С потерями
Размер потока : 376 Мбайт (2%)
Язык : Ukrainian
Default : Нет
Forced : Нет
Аудио #3
Идентификатор : 4
Формат : DTS
Формат/Информация : Digital Theater Systems
Режим : 16
Параметр Endianness формата : Big
Идентификатор кодека : A_DTS
Продолжительность : 1 ч. 57 м.
Вид битрейта : Постоянный
Битрейт : 1509 Кбит/сек
Каналы : 6 каналов
Расположение каналов : Front: L C R, Side: L R, LFE
Частота : 48,0 КГц
Битовая глубина : 24 бит
Метод сжатия : С потерями
Размер потока : 1,24 Гбайт (5%)
Заголовок : Оригинал
Язык : English
Default : Нет
Forced : Нет
Текст #1
Идентификатор : 5
Формат : UTF-8
Идентификатор кодека : S_TEXT/UTF8
Идентификатор кодека/Информация : UTF-8 Plain Text
Заголовок : Форс.
Язык : Russian
Default : Да
Forced : Нет
Текст #2
Идентификатор : 6
Формат : UTF-8
Идентификатор кодека : S_TEXT/UTF8
Идентификатор кодека/Информация : UTF-8 Plain Text
Язык : Russian
Default : Нет
Forced : Нет
Текст #3
Идентификатор : 7
Формат : UTF-8
Идентификатор кодека : S_TEXT/UTF8
Идентификатор кодека/Информация : UTF-8 Plain Text
Заголовок : Форс.
Язык : Ukrainian
Default : Нет
Forced : Нет
Текст #4
Идентификатор : 8
Формат : UTF-8
Идентификатор кодека : S_TEXT/UTF8
Идентификатор кодека/Информация : UTF-8 Plain Text
Язык : Ukrainian
Default : Нет
Forced : Нет
Текст #5
Идентификатор : 9
Формат : UTF-8
Идентификатор кодека : S_TEXT/UTF8
Идентификатор кодека/Информация : UTF-8 Plain Text
Язык : English
Default : Нет
Forced : Нет
Текст #6
Идентификатор : 10
Формат : UTF-8
Идентификатор кодека : S_TEXT/UTF8
Идентификатор кодека/Информация : UTF-8 Plain Text
Язык : English
Default : Нет
Forced : Нет
Текст #7
Идентификатор : 11
Формат : UTF-8
Идентификатор кодека : S_TEXT/UTF8
Идентификатор кодека/Информация : UTF-8 Plain Text
Язык : English
Default : Нет
Forced : Нет
Меню
00:00:00.000 : :Chapter 01
00:04:33.898 : :Chapter 02
00:08:51.739 : :Chapter 03
00:14:33.914 : :Chapter 04
00:17:01.603 : :Chapter 05
00:19:27.040 : :Chapter 06
00:21:52.936 : :Chapter 07
00:26:13.571 : :Chapter 08
00:30:47.971 : :Chapter 09
00:32:48.675 : :Chapter 10
00:36:12.378 : :Chapter 11
00:39:06.969 : :Chapter 12
00:43:03.497 : :Chapter 13
00:45:40.654 : :Chapter 14
00:52:10.377 : :Chapter 15
00:57:21.187 : :Chapter 16
01:01:23.888 : :Chapter 17
01:02:59.901 : :Chapter 18
01:06:05.920 : :Chapter 19
01:10:30.476 : :Chapter 20
01:13:26.527 : :Chapter 21
01:18:24.866 : :Chapter 22
01:21:56.202 : :Chapter 23
01:26:04.993 : :Chapter 24
01:28:06.906 : :Chapter 25
01:32:02.975 : :Chapter 26
01:35:52.955 : :Chapter 27
01:38:30.654 : :Chapter 28
01:41:30.751 : :Chapter 29
01:43:44.635 : :Chapter 30
01:46:41.561 : :Chapter 31
01:50:12.689 : :Chapter 32
---

Скриншоты

-
[Профиль] [ЛС]
Показать сообщения:    

Текущее время: Сегодня 22:31

Часовой пояс: GMT



Вы не можете начинать темы
Вы не можете отвечать на сообщения
Вы не можете редактировать свои сообщения
Вы не можете удалять свои сообщения
Вы не можете голосовать в опросах
Вы не можете прикреплять файлы к сообщениям
Вы не можете скачивать файлы