Робокоп 2 / RoboCop 2 (Ирвин Кершнер) [1990 г., фантастика, боевик, триллер, криминал, BDRip-AVC] [DUB]

 
Автор Сообщение

Bathory ®

Пол:

Стаж: 1 год 9 месяцев

Сообщений: 320



Награды: 3 (Подробнее)

Друг (Количество: 1) За внесенный вклад в развитие сайта (Количество: 1) Girls (Количество: 1)
Торрент-статистика

Создавать темы 09-Авг-2017 08:08

[Цитировать]

Робокоп 2 / RoboCop 2- Информация о фильме
Название: Робокоп 2
Оригинальное название: RoboCop 2
Год выхода: 1990
Жанр: фантастика, боевик, триллер, криминал
Режиссер: Ирвин Кершнер
В ролях: Питер Уэллер, Нэнси Аллен, Дэн О’Херлихи, Том Нунен, Белинда Бауэр, Гэбриел Дэймон, Джон Гловер, Марио Мачадо, Лиза Гиббонс, Джон Ингл
О фильме:
Робот — полицейский продолжает патрулировать улицы Детройта. На этот раз ему предстоит уничтожить фабрику, которая незаконно производит новый вид наркотиков, а также сразиться с роботом — убийцей, созданным в секретной лаборатории, чтобы убрать Робокопа.

Страна: США
Студия: Orion Pictures, Tobor Productions
Продолжительность: 01:56:40
Перевод: Дубляж
Файл
Кодек: AVC
Качество: BDRip-AVC |Blu-Ray 1080p|
Видео: 736x400, 827 kbps, 23, 976 fps, 0,117 Bits/(Pixel*Frame)
Звук: AAC, 48 kHz, 2 ch, 64 kbps
Субтитры: русские, английские

MI

Общее
Unique ID : 187509617239762100665504833206316226635 (0x8D1109E64B622C3CB03A526D3890D84B)
Complete name : E:\Robocop.2.1990.BDRip-AVC.MegaPeer.mkv
Format : Matroska
Format version : Version 4 / Version 2
File size : 745 Мбайт
Duration : 1 ч. 56 м.
Overall bit rate : 892 Кбит/сек
Encoded date : UTC 2017-08-09 07:41:23
Writing application : mkvmerge v14.0.0 ('Flow') 64bit
Writing library : libebml v1.3.4 + libmatroska v1.4.5
Видео
ID : 1
Format : AVC
Format/Info : Advanced Video Codec
Format profile : High@L4.1
Format settings, CABAC : Да
Format settings, ReFrames : 12 кадров
Codec ID : V_MPEG4/ISO/AVC
Duration : 1 ч. 56 м.
Bit rate : 827 Кбит/сек
Width : 736 пикселей
Height : 400 пикселей
Display aspect ratio : 1,85:1
Frame rate mode : Постоянный
Frame rate : 23,976 (24000/1001) кадра/сек
Color space : YUV
Chroma subsampling : 4:2:0
Bit depth : 8 бит
Scan type : Прогрессивная
Bits/(Pixel*Frame) : 0.117
Stream size : 690 Мбайт (93%)
Writing library : x264 core 152 r2851 ba24899
Encoding settings : cabac=1 / ref=12 / deblock=1:-2:-2 / analyse=0x3:0x133 / me=umh / subme=11 / psy=1 / psy_rd=1.00:0.10 / mixed_ref=1 / me_range=32 / chroma_me=1 / trellis=2 / 8x8dct=1 / cqm=0 / deadzone=21,11 / fast_pskip=0 / chroma_qp_offset=-3 / threads=12 / lookahead_threads=3 / sliced_threads=0 / nr=0 / decimate=0 / interlaced=0 / bluray_compat=0 / constrained_intra=0 / bframes=14 / b_pyramid=2 / b_adapt=2 / b_bias=0 / direct=3 / weightb=1 / open_gop=0 / weightp=2 / keyint=240 / keyint_min=23 / scenecut=0 / intra_refresh=0 / rc_lookahead=60 / rc=2pass / mbtree=1 / bitrate=827 / ratetol=1.0 / qcomp=0.60 / qpmin=0 / qpmax=51 / qpstep=4 / cplxblur=15.0 / qblur=0.5 / vbv_maxrate=50000 / vbv_bufsize=62500 / nal_hrd=none / filler=0 / ip_ratio=1.40 / aq=2:1.00
Default : Да
Forced : Нет
Аудио
ID : 2
Format : AAC
Format/Info : Advanced Audio Codec
Format profile : HE-AAC / LC
Codec ID : A_AAC
Duration : 1 ч. 56 м.
Bit rate : 64,0 Кбит/сек
Channel(s) : 2 канала
Channel positions : Front: L R
Sampling rate : 48,0 КГц / 24,0 КГц
Frame rate : 23,438 кадра/сек (1024 spf)
Compression mode : С потерями
Delay relative to video : 31 мс.
Stream size : 53,4 Мбайт (7%)
Language : Russian
Default : Да
Forced : Нет
Текст #1
ID : 3
Format : UTF-8
Codec ID : S_TEXT/UTF8
Codec ID/Info : UTF-8 Plain Text
Duration : 1 ч. 55 м.
Bit rate : 1 бит/сек
Count of elements : 35
Stream size : 1,67 Кбайт (0%)
Language : Russian
Default : Да
Forced : Нет
Текст #2
ID : 4
Format : UTF-8
Codec ID : S_TEXT/UTF8
Codec ID/Info : UTF-8 Plain Text
Duration : 1 ч. 55 м.
Bit rate : 73 бит/сек
Count of elements : 922
Stream size : 62,0 Кбайт (0%)
Language : Russian
Default : Нет
Forced : Нет
Текст #3
ID : 5
Format : UTF-8
Codec ID : S_TEXT/UTF8
Codec ID/Info : UTF-8 Plain Text
Duration : 1 ч. 55 м.
Bit rate : 48 бит/сек
Count of elements : 1505
Stream size : 41,3 Кбайт (0%)
Language : English
Default : Нет
Forced : Нет
Меню
00:00:00.000 : en:Program Start/Media Break
00:08:17.663 : en:Nuke
00:13:54.750 : en:"Your Husband is Dead"
00:20:09.416 : en:Omni Consumer Reports
00:27:09.377 : en:"You Sold Us Out..."
00:31:46.821 : en:"Jesus Had Days Like This"
00:43:42.620 : en:"Doesn't He Look Scared?"
00:50:42.539 : en:Time to Update the Program
00:57:33.074 : en:"Something's Wrong"
01:06:23.938 : en:A Few Thousand Volts
01:12:43.192 : en:Cain and Robo
01:19:34.102 : en:A Chance for Immortality
01:27:10.725 : en:Help Save the Motor City
01:36:35.122 : en:"What the Hell is That?"
01:48:11.193 : en:A Brand New City
01:50:28.204 : en:Robocop

Скриншоты

Релиз:
[Профиль] [ЛС]
Показать сообщения:    

Текущее время: Сегодня 13:05

Часовой пояс: GMT



Вы не можете начинать темы
Вы не можете отвечать на сообщения
Вы не можете редактировать свои сообщения
Вы не можете удалять свои сообщения
Вы не можете голосовать в опросах
Вы не можете прикреплять файлы к сообщениям
Вы не можете скачивать файлы