Робокоп / RoboCop (Пол Верховен / Paul Verhoeven) [1987, США, фантастика, боевик, криминал, BDRip 1080p] [Director's Cut] 3x MVO (Blu-ray CEE, Superbit, Киномания) + AVO (Живов) + VO (Поздняков) + Original Eng + subs (Rus, Eng)

 
Автор Сообщение

Russian Mafia ®

Пол:

Стаж: 1 год 8 месяцев

Сообщений: 4247



Награды: 10 (Подробнее)

За внесенный вклад в развитие сайта (Количество: 1) Mega Seeder 4 (Количество: 1) Top Releaser 5 (Количество: 1)
Торрент-статистика

Создавать темы 24-Мар-2016 13:11

[Цитировать]

Робокоп / RoboCop [Director's Cut]- Год выпуска: 1987
Выпущено: США
Жанр: фантастика, боевик, криминал
Продолжительность: 01:43:17
Перевод: Профессиональный (многоголосый, закадровый) Blu-ray CEE
+ Профессиональный (многоголосый, закадровый) Superbit
+ Профессиональный (многоголосый, закадровый) Киномания
+ Авторский (одноголосый, закадровый) Ю.Живов
+ Одноголосый, закадровый К.Поздняков
Оригинальная звуковая дорожка: English
Субтитры: Russian (captions), Russian, English (SDH)-Режиссер: Пол Верховен / Paul Verhoeven
В ролях: Питер Уэллер, Нэнси Аллен, Дэн О’Херлихи, Ронни Кокс, Кертвуд Смит, Мигель Феррер, Роберт Дукуй, Рэй Уайз, Фелтон Перри, Пол МакКрейн
О фильме: После гибели одного из лучших полицейских врачи-экспериментаторы создают из него неуязвимого киборга Робокопа, который в одиночку борется с бандой преступников. Однако прочная броня не спасает Робокопа от мучительных, обрывочных воспоминаний о прошлом: он постоянно видит кошмарные сны, в которых погибает от рук жестоких преступников. Теперь он не только ждёт правосудия,… но и жаждет мести!-SbR!
Релиз:
Формат: MKV
Видео: 1920x1038 at 23.976 fps, x264@L4.1, 2pass, ~19000 kbps
Аудио #1: Russian: 48 kHz, DTS, 5.1, 768 kbps |Многоголосый закадровый, Blu-ray CEE|
Аудио #2: Russian: 48 kHz, DTS, 5.1, 755 kbps |Многоголосый закадровый, Superbit|
Аудио #3: Russian: 48 kHz, AC3, 5.1, 384 kbps |Многоголосый закадровый, Киномания|
Аудио #4: Russian: 48 kHz, AC3, 5.1, 384 kbps |Одноголосый закадровый, Ю. Живов|
Аудио #5: Russian: 48 kHz, AC3, 2.0, 192 kbps |Одноголосый закадровый, К. Поздняков|
Аудио #6: English: 48 kHz, DTS, 5.1, 1509 kbps |
Семпл--

mInfo

Формат : Matroska
Версия формата : Version 4 / Version 2
Размер файла : 16,6 Гбайт
Продолжительность : 1 ч. 43 м.
Общий поток : 23,0 Мбит/сек
Название фильма : RoboCop (1987) Director's Cut - Release for HDCLUB by SbR
Дата кодирования : UTC 2014-02-11 11:19:44
Программа кодирования : mkvmerge v6.6.0 ('The Edge Of The In Between') built on Dec 1 2013 17:55:00
Библиотека кодирования : libebml v1.3.0 + libmatroska v1.4.1
Attachment : Yes / Yes
Видео
Идентификатор : 1
Формат : AVC
Формат/Информация : Advanced Video Codec
Профиль формата : High@L4.1
Параметр CABAC формата : Да
Параметр ReFrames формата : 4 кадра
Идентификатор кодека : V_MPEG4/ISO/AVC
Продолжительность : 1 ч. 43 м.
Битрейт : 19,0 Мбит/сек
Ширина : 1920 пикселей
Высота : 1038 пикселей
Соотношение сторон : 1,85:1
Режим частоты кадров : Постоянный
Частота кадров : 23,976 кадра/сек
Цветовое пространство : YUV
Субдискретизация насыщенности : 4:2:0
Битовая глубина : 8 бит
Тип развёртки : Прогрессивная
Бит/(Пиксели*Кадры) : 0.398
Размер потока : 13,4 Гбайт (81%)
Заголовок : Release for HDCLUB
Библиотека кодирования : x264 core 140 r2377+40 929f149 tMod [8-bit@4:2:0 X86_64]
Настройки программы : cabac=1 / ref=4 / deblock=1:-2:-2 / analyse=0x3:0x113 / me=umh / subme=11 / psy=1 / fade_compensate=0.00 / psy_rd=1.00:0.00 / mixed_ref=1 / me_range=48 / chroma_me=1 / trellis=2 / 8x8dct=1 / cqm=0 / deadzone=21,11 / fast_pskip=0 / chroma_qp_offset=-2 / threads=12 / lookahead_threads=3 / sliced_threads=0 / nr=0 / decimate=1 / interlaced=0 / bluray_compat=0 / constrained_intra=0 / fgo=0 / bframes=16 / b_pyramid=2 / b_adapt=2 / b_bias=0 / direct=3 / weightb=1 / open_gop=0 / weightp=2 / keyint=250 / keyint_min=23 / scenecut=40 / intra_refresh=0 / rc_lookahead=120 / rc=2pass / mbtree=1 / bitrate=19000 / ratetol=1.0 / qcomp=0.80 / qpmin=0:0:0 / qpmax=69:69:69 / qpstep=4 / cplxblur=20.0 / qblur=0.5 / vbv_maxrate=62500 / vbv_bufsize=78125 / nal_hrd=none / filler=0 / ip_ratio=1.40 / aq=4:0.80 / aq-sensitivity=11.00 / aq-factor=1.00:1.00:1.00 / aq2=1:0.60 / aq2-sensitivity=9.00 / aq2-factor=1.00:1.00:1.00 / aq3=1:[0.60:0.60]:[0.60:0.60]:[0.60:0.60]:[0.60:0.60] / aq3-sensitivity=10.00 / aq3-factor=[1.00:1.00]:[1.00:1.00]:[1.00:1.00] / aq3-boundary=192:64:24
Язык : English
Default : Да
Forced : Нет
Основные цвета : BT.709
Характеристики трансфера : BT.709
Коэффициенты матрицы : BT.709
Аудио #1
Идентификатор : 2
Формат : DTS
Формат/Информация : Digital Theater Systems
Режим : 16
Параметр Endianness формата : Big
Идентификатор кодека : A_DTS
Продолжительность : 1 ч. 43 м.
Вид битрейта : Постоянный
Битрейт : 768 Кбит/сек
Каналы : 6 каналов
Расположение каналов : Front: L C R, Side: L R, LFE
Частота : 48,0 КГц
Битовая глубина : 24 бит
Метод сжатия : С потерями
Размер потока : 567 Мбайт (3%)
Заголовок : MVO, Blu-ray CEE
Язык : Russian
Default : Да
Forced : Нет
Аудио #2
Идентификатор : 3
Формат : DTS
Формат/Информация : Digital Theater Systems
Режим : 16
Параметр Endianness формата : Big
Идентификатор кодека : A_DTS
Продолжительность : 1 ч. 43 м.
Вид битрейта : Постоянный
Битрейт : 755 Кбит/сек
Каналы : 6 каналов
Расположение каналов : Front: L C R, Side: L R, LFE
Частота : 48,0 КГц
Битовая глубина : 24 бит
Метод сжатия : С потерями
Размер потока : 557 Мбайт (3%)
Заголовок : MVO, Superbit
Язык : Russian
Default : Нет
Forced : Нет
Аудио #3
Идентификатор : 4
Формат : AC-3
Формат/Информация : Audio Coding 3
Расширение режима : CM (complete main)
Параметр Endianness формата : Big
Идентификатор кодека : A_AC3
Продолжительность : 1 ч. 43 м.
Вид битрейта : Постоянный
Битрейт : 384 Кбит/сек
Каналы : 6 каналов
Расположение каналов : Front: L C R, Side: L R, LFE
Частота : 48,0 КГц
Битовая глубина : 16 бит
Метод сжатия : С потерями
Размер потока : 284 Мбайт (2%)
Заголовок : MVO, Киномания
Язык : Russian
Default : Нет
Forced : Нет
Аудио #4
Идентификатор : 5
Формат : AC-3
Формат/Информация : Audio Coding 3
Расширение режима : CM (complete main)
Параметр Endianness формата : Big
Идентификатор кодека : A_AC3
Продолжительность : 1 ч. 43 м.
Вид битрейта : Постоянный
Битрейт : 384 Кбит/сек
Каналы : 6 каналов
Расположение каналов : Front: L C R, Side: L R, LFE
Частота : 48,0 КГц
Битовая глубина : 16 бит
Метод сжатия : С потерями
Размер потока : 284 Мбайт (2%)
Заголовок : VO, Живов
Язык : Russian
Default : Нет
Forced : Нет
Аудио #5
Идентификатор : 6
Формат : AC-3
Формат/Информация : Audio Coding 3
Расширение режима : CM (complete main)
Параметр Endianness формата : Big
Идентификатор кодека : A_AC3
Продолжительность : 1 ч. 43 м.
Вид битрейта : Постоянный
Битрейт : 192 Кбит/сек
Каналы : 2 канала
Расположение каналов : Front: L R
Частота : 48,0 КГц
Битовая глубина : 16 бит
Метод сжатия : С потерями
Размер потока : 142 Мбайт (1%)
Заголовок : VO, Поздняков
Язык : Russian
Default : Нет
Forced : Нет
Аудио #6
Идентификатор : 7
Формат : DTS
Формат/Информация : Digital Theater Systems
Режим : 16
Параметр Endianness формата : Big
Идентификатор кодека : A_DTS
Продолжительность : 1 ч. 43 м.
Вид битрейта : Постоянный
Битрейт : 1509 Кбит/сек
Каналы : 6 каналов
Расположение каналов : Front: L C R, Side: L R, LFE
Частота : 48,0 КГц
Битовая глубина : 24 бит
Метод сжатия : С потерями
Размер потока : 1,09 Гбайт (7%)
Язык : English
Default : Нет
Forced : Нет
Текст #1
Идентификатор : 8
Формат : UTF-8
Идентификатор кодека : S_TEXT/UTF8
Идентификатор кодека/Информация : UTF-8 Plain Text
Заголовок : captions
Язык : Portuguese
Default : Да
Forced : Нет
Текст #2
Идентификатор : 9
Формат : UTF-8
Идентификатор кодека : S_TEXT/UTF8
Идентификатор кодека/Информация : UTF-8 Plain Text
Язык : Russian
Default : Нет
Forced : Нет
Текст #3
Идентификатор : 10
Формат : UTF-8
Идентификатор кодека : S_TEXT/UTF8
Идентификатор кодека/Информация : UTF-8 Plain Text
Язык : English
Default : Нет
Forced : Нет
Меню
00:00:00.000 : en:Main Title/New Guy
00:06:45.113 : en:ED-209
00:14:07.555 : en:Hot Pursuit
00:17:32.551 : en:Mutilation of Murphy
00:26:40.515 : en:New Kinda Cop
00:34:28.024 : en:On the Streets
00:40:32.805 : en:Ocp Showdown
00:45:15.337 : en:Bad Memories
00:49:46.650 : en:Self-Discovery
00:57:48.131 : en:Blast From the Past
01:01:41.239 : en:Killer Caught
01:08:25.184 : en:Battle Bots
01:15:59.888 : en:Un-Masked
01:22:46.544 : en:Once and for All
01:33:53.961 : en:Fired
01:37:04.902 : en:End Credits
-
[Профиль] [ЛС]
Показать сообщения:    

Текущее время: Сегодня 04:18

Часовой пояс: GMT



Вы не можете начинать темы
Вы не можете отвечать на сообщения
Вы не можете редактировать свои сообщения
Вы не можете удалять свои сообщения
Вы не можете голосовать в опросах
Вы не можете прикреплять файлы к сообщениям
Вы не можете скачивать файлы