Робокоп: Трилогия / RoboCop: Trilogy (1987-1993) BDRip 1080p

 
Автор Сообщение

Russian Mafia ®

Пол:

Стаж: 1 год 8 месяцев

Сообщений: 4247



Награды: 10 (Подробнее)

Top Releaser 4 (Количество: 1) Top Releaser 2 (Количество: 1) Mega Seeder 3 (Количество: 1)
Торрент-статистика

Создавать темы 24-Мар-2016 12:57

[Цитировать]

Жанр: фантастика, боевик, криминалГод выпуска: 1987 / 1990 / 1993Продолжительность: 01:43:14 / 01:56:40 / 01:44:50Режиссёр: Пол Верховен, Ирвин Кершнер, Фред Деккер«Частично человек. Частично машина. Целиком полицейский. Будущее охраны правопорядка...»

Робокоп / RoboCop (1987) BDRip 1080p | Extended Director's Cut

Информация о фильме
Название: Робокоп
Оригинальное название: RoboCop
Год выхода: 1987
Жанр: фантастика, боевик, криминал
Режиссер: Пол Верховен
В ролях: Питер Уэллер, Нэнси Аллен, Дэн О’Херлихи, Ронни Кокс, Кертвуд Смит, Мигель Феррер, Роберт Дукуй, Рэй Уайз, Фелтон Перри, Пол МакКрейн
О фильме:
После гибели одного из лучших полицейских врачи-экспериментаторы создают из него неуязвимого киборга Робокопа, который в одиночку борется с бандой преступников. Однако прочная броня не спасает Робокопа от мучительных, обрывочных воспоминаний о прошлом: он постоянно видит кошмарные сны, в которых погибает от рук жестоких преступников. Теперь он не только ждёт правосудия, но и жаждет мести.

Выпущено: США
Студия: Orion Pictures
Продолжительность: 01:43:14
Перевод: Профессиональный многоголосый закадровый + Оригинал
Файл
Кодек: x264
Качество: BDRip (источник: Blu-ray Disc)
Видео: 1920x1040 (1,85:1), 23.976 fps, 9479 kbps
Аудио #1: AC-3, 6 ch, 640 kbps (Rus)
Аудио #2: AC-3, 6 ch, 640 kbps (Eng)
Субтитры: Русские, Английские
Скачать: семпл
Скриншоты

MI

Общее
Уникальный идентификатор : 179538127252412171241749494058893293459 (0x8711C9196059BB39B2F56BF9AB9DB793)
Полное имя : E:RoboCop. Trilogy (1987-1993) by N1NT3NDORoboCop.Extended.Director's.Cut.1987.BDRip.1080p.Rus.Eng.mkv
Формат : Matroska
Версия формата : Version 2
Размер файла : 7,76 Гбайт
Продолжительность : 1 ч. 43 м.
Общий поток : 10,8 Мбит/сек
Название фильма : Робокоп / RoboCop (1987) [Extended Director's Cut]
Дата кодирования : UTC 2013-09-23 05:15:45
Программа кодирования : mkvmerge v5.8.0 ('No Sleep / Pillow') built on Sep 2 2012 15:37:04
Библиотека кодирования : libebml v1.2.3 + libmatroska v1.3.0
Attachment : Yes
Видео
Идентификатор : 1
Формат : AVC
Формат/Информация : Advanced Video Codec
Профиль формата : [email protected]/* */
Параметр CABAC формата : Да
Параметр ReFrames формата : 4 кадра
Идентификатор кодека : V_MPEG4/ISO/AVC
Продолжительность : 1 ч. 43 м.
Битрейт : 9479 Кбит/сек
Ширина : 1920 пикселей
Высота : 1040 пикселей
Соотношение сторон : 1,85:1
Режим частоты кадров : Постоянный
Частота кадров : 23,976 кадра/сек
Цветовое пространство : YUV
Субдискретизация насыщенности : 4:2:0
Битовая глубина : 8 бит
Тип развёртки : Прогрессивная
Бит/(Пиксели*Кадры) : 0.198
Размер потока : 6,68 Гбайт (86%)
Заголовок : Release by N1NT3NDO
Библиотека кодирования : x264 core 138 r2358 9e941d1
Настройки программы : cabac=1 / ref=4 / deblock=1:-3:-3 / analyse=0x3:0x133 / me=umh / subme=10 / psy=1 / psy_rd=1.00:0.00 / mixed_ref=1 / me_range=32 / chroma_me=1 / trellis=2 / 8x8dct=1 / cqm=0 / deadzone=21,11 / fast_pskip=0 / chroma_qp_offset=-2 / threads=12 / lookahead_threads=1 / sliced_threads=0 / nr=0 / decimate=0 / interlaced=0 / bluray_compat=0 / constrained_intra=0 / bframes=6 / b_pyramid=2 / b_adapt=2 / b_bias=0 / direct=3 / weightb=1 / open_gop=0 / weightp=2 / keyint=240 / keyint_min=23 / scenecut=40 / intra_refresh=0 / rc_lookahead=80 / rc=2pass / mbtree=0 / bitrate=9479 / ratetol=1.0 / qcomp=0.60 / qpmin=0 / qpmax=69 / qpstep=4 / cplxblur=20.0 / qblur=0.5 / vbv_maxrate=50000 / vbv_bufsize=62500 / nal_hrd=none / ip_ratio=1.40 / pb_ratio=1.30 / aq=1:1.00
Язык : English
Default : Да
Forced : Нет
Аудио #1
Идентификатор : 2
Формат : AC-3
Формат/Информация : Audio Coding 3
Расширение режима : CM (complete main)
Параметр Endianness формата : Big
Идентификатор кодека : A_AC3
Продолжительность : 1 ч. 43 м.
Вид битрейта : Постоянный
Битрейт : 640 Кбит/сек
Каналы : 6 каналов
Расположение каналов : Front: L C R, Side: L R, LFE
Частота : 48,0 КГц
Битовая глубина : 16 бит
Метод сжатия : С потерями
Размер потока : 473 Мбайт (6%)
Заголовок : Rus
Язык : Russian
Default : Да
Forced : Нет
Аудио #2
Идентификатор : 3
Формат : AC-3
Формат/Информация : Audio Coding 3
Расширение режима : CM (complete main)
Параметр Endianness формата : Big
Идентификатор кодека : A_AC3
Продолжительность : 1 ч. 43 м.
Вид битрейта : Постоянный
Битрейт : 640 Кбит/сек
Каналы : 6 каналов
Расположение каналов : Front: L C R, Side: L R, LFE
Частота : 48,0 КГц
Битовая глубина : 16 бит
Метод сжатия : С потерями
Размер потока : 473 Мбайт (6%)
Заголовок : Eng
Язык : English
Default : Нет
Forced : Нет
Текст #1
Идентификатор : 4
Формат : UTF-8
Идентификатор кодека : S_TEXT/UTF8
Идентификатор кодека/Информация : UTF-8 Plain Text
Заголовок : Rus
Язык : Russian
Default : Нет
Forced : Нет
Текст #2
Идентификатор : 5
Формат : UTF-8
Идентификатор кодека : S_TEXT/UTF8
Идентификатор кодека/Информация : UTF-8 Plain Text
Заголовок : Eng
Язык : English
Default : Нет
Forced : Нет
Меню
00:00:00.000 : :Chapter 01
00:06:40.691 : :Chapter 02
00:14:03.133 : :Chapter 03
00:17:28.130 : :Chapter 04
00:26:36.177 : :Chapter 05
00:34:23.561 : :Chapter 06
00:40:28.342 : :Chapter 07
00:45:10.833 : :Chapter 08
00:49:42.145 : :Chapter 09
00:57:43.626 : :Chapter 10
01:01:36.734 : :Chapter 11
01:08:20.679 : :Chapter 12
01:15:55.384 : :Chapter 13
01:22:42.040 : :Chapter 14
01:33:49.373 : :Chapter 15
01:37:00.314 : :Chapter 16

x264

x264 [info]: frame I:1055 Avg QP:19.37 size:126594
x264 [info]: frame P:34061 Avg QP:20.63 size: 82436
x264 [info]: frame B:113406 Avg QP:22.46 size: 36987
x264 [info]: consecutive B-frames: 2.7% 4.1% 9.7% 17.5% 11.8% 48.5% 5.6%

Робокоп 2 / RoboCop 2 (1990) BDRip 1080p

Информация о фильме
Название: Робокоп 2
Оригинальное название: RoboCop 2
Год выхода: 1990
Жанр: фантастика, боевик, криминал
Режиссер: Ирвин Кершнер
В ролях: Питер Уэллер, Нэнси Аллен, Дэн О’Херлихи, Том Нунен, Белинда Бауэр, Гэбриел Дэймон, Джон Гловер, Марио Мачадо, Лиза Гиббонс, Джон Ингл
О фильме:
Робот - полицейский продолжает патрулировать улицы Детройта. На этот раз ему предстоит уничтожить фабрику, которая незаконно производит новый вид наркотиков, а также сразиться с роботом - убийцей, созданным в секретной лаборатории, чтобы убрать Робокопа.

Выпущено: США
Студия: Metro-Goldwyn-Mayer, Live Entertainment, Orion Pictures
Продолжительность: 01:56:40
Перевод: Дублированный (лицензия) + Оригинал
Файл
Кодек: x264
Качество: BDRip (источник: Blu-ray Disc)
Видео: 1920x1040 (1,85:1), 23.976 fps, 8240 kbps
Аудио #1: AC-3, 6 ch, 640 kbps (Rus)
Аудио #2: AC-3, 6 ch, 640 kbps (Eng)
Субтитры: Русские (Forced), Русские, Английские
Скачать: семпл
Скриншоты

MI

Общее
Уникальный идентификатор : 221290345746790124535689266694748154083 (0xA67AF8676655233BA486EB51FD74A8E3)
Полное имя : E:RoboCop. Trilogy (1987-1993) by N1NT3NDORoboCop.2.1990.BDRip.1080p.Rus.Eng.mkv
Формат : Matroska
Версия формата : Version 2
Размер файла : 7,76 Гбайт
Продолжительность : 1 ч. 56 м.
Общий поток : 9517 Кбит/сек
Название фильма : Робокоп 2 / RoboCop 2 (1990)
Дата кодирования : UTC 2013-09-23 05:15:55
Программа кодирования : mkvmerge v5.8.0 ('No Sleep / Pillow') built on Sep 2 2012 15:37:04
Библиотека кодирования : libebml v1.2.3 + libmatroska v1.3.0
Attachment : Yes
Видео
Идентификатор : 1
Формат : AVC
Формат/Информация : Advanced Video Codec
Профиль формата : [email protected]/* */
Параметр CABAC формата : Да
Параметр ReFrames формата : 4 кадра
Идентификатор кодека : V_MPEG4/ISO/AVC
Продолжительность : 1 ч. 56 м.
Битрейт : 8240 Кбит/сек
Ширина : 1920 пикселей
Высота : 1040 пикселей
Соотношение сторон : 1,85:1
Режим частоты кадров : Постоянный
Частота кадров : 23,976 кадра/сек
Цветовое пространство : YUV
Субдискретизация насыщенности : 4:2:0
Битовая глубина : 8 бит
Тип развёртки : Прогрессивная
Бит/(Пиксели*Кадры) : 0.172
Размер потока : 6,56 Гбайт (85%)
Заголовок : Release by N1NT3NDO
Библиотека кодирования : x264 core 138 r2358 9e941d1
Настройки программы : cabac=1 / ref=4 / deblock=1:-3:-3 / analyse=0x3:0x133 / me=umh / subme=10 / psy=1 / psy_rd=1.00:0.00 / mixed_ref=1 / me_range=32 / chroma_me=1 / trellis=2 / 8x8dct=1 / cqm=0 / deadzone=21,11 / fast_pskip=0 / chroma_qp_offset=-2 / threads=12 / lookahead_threads=1 / sliced_threads=0 / nr=0 / decimate=0 / interlaced=0 / bluray_compat=0 / constrained_intra=0 / bframes=6 / b_pyramid=2 / b_adapt=2 / b_bias=0 / direct=3 / weightb=1 / open_gop=0 / weightp=2 / keyint=240 / keyint_min=23 / scenecut=40 / intra_refresh=0 / rc_lookahead=80 / rc=2pass / mbtree=0 / bitrate=8240 / ratetol=1.0 / qcomp=0.60 / qpmin=0 / qpmax=69 / qpstep=4 / cplxblur=20.0 / qblur=0.5 / vbv_maxrate=50000 / vbv_bufsize=62500 / nal_hrd=none / ip_ratio=1.40 / pb_ratio=1.30 / aq=1:1.00
Язык : English
Default : Да
Forced : Нет
Аудио #1
Идентификатор : 2
Формат : AC-3
Формат/Информация : Audio Coding 3
Расширение режима : CM (complete main)
Параметр Endianness формата : Big
Идентификатор кодека : A_AC3
Продолжительность : 1 ч. 56 м.
Вид битрейта : Постоянный
Битрейт : 640 Кбит/сек
Каналы : 6 каналов
Расположение каналов : Front: L C R, Side: L R, LFE
Частота : 48,0 КГц
Битовая глубина : 16 бит
Метод сжатия : С потерями
Размер потока : 534 Мбайт (7%)
Заголовок : Rus
Язык : Russian
Default : Да
Forced : Нет
Аудио #2
Идентификатор : 3
Формат : AC-3
Формат/Информация : Audio Coding 3
Расширение режима : CM (complete main)
Параметр Endianness формата : Big
Идентификатор кодека : A_AC3
Продолжительность : 1 ч. 56 м.
Вид битрейта : Постоянный
Битрейт : 640 Кбит/сек
Каналы : 6 каналов
Расположение каналов : Front: L C R, Side: L R, LFE
Частота : 48,0 КГц
Битовая глубина : 16 бит
Метод сжатия : С потерями
Размер потока : 534 Мбайт (7%)
Заголовок : Eng
Язык : English
Default : Нет
Forced : Нет
Текст #1
Идентификатор : 4
Формат : UTF-8
Идентификатор кодека : S_TEXT/UTF8
Идентификатор кодека/Информация : UTF-8 Plain Text
Заголовок : Rus (Forced)
Язык : Russian
Default : Нет
Forced : Нет
Текст #2
Идентификатор : 5
Формат : UTF-8
Идентификатор кодека : S_TEXT/UTF8
Идентификатор кодека/Информация : UTF-8 Plain Text
Заголовок : Rus
Язык : Russian
Default : Нет
Forced : Нет
Текст #3
Идентификатор : 6
Формат : UTF-8
Идентификатор кодека : S_TEXT/UTF8
Идентификатор кодека/Информация : UTF-8 Plain Text
Заголовок : Eng
Язык : English
Default : Нет
Forced : Нет
Меню
00:00:00.000 : en:Program Start/Media Break
00:08:17.663 : en:Nuke
00:13:54.750 : en:"Your Husband is Dead"
00:20:09.416 : en:Omni Consumer Reports
00:27:09.377 : en:"You Sold Us Out..."
00:31:46.821 : en:"Jesus Had Days Like This"
00:43:42.620 : en:"Doesn't He Look Scared?"
00:50:42.539 : en:Time to Update the Program
00:57:33.074 : en:"Something's Wrong"
01:06:23.938 : en:A Few Thousand Volts
01:12:43.192 : en:Cain and Robo
01:19:34.102 : en:A Chance for Immortality
01:27:10.725 : en:Help Save the Motor City
01:36:35.122 : en:"What the Hell is That?"
01:48:11.193 : en:A Brand New City
01:50:28.204 : en:Robocop

x264

x264 [info]: frame I:1137 Avg QP:19.81 size:170217
x264 [info]: frame P:36613 Avg QP:20.76 size: 72205
x264 [info]: frame B:130083 Avg QP:22.30 size: 33574
x264 [info]: consecutive B-frames: 2.2% 2.5% 9.7% 13.5% 16.5% 47.9% 7.6%

Робокоп 3 / RoboCop 3 (1993) BDRip 1080p

Информация о фильме
Название: Робокоп 3
Оригинальное название: RoboCop 3
Год выхода: 1993
Жанр: фантастика, боевик, криминал
Режиссер: Фред Деккер
В ролях: Роберт Джон Бёрк, Нэнси Аллен, Рип Торн, Джон Касл, Стивен Рут, Си Си Эйч Паундер, Дэниэл фон Барген, Реми Райан, Роберт Дукуй, Марио Мачадо
О фильме:
Могущественная корпорация «OKP» и их «сумасшедший» управляющий Макдагет предпринимает меры помочь людям, но с другой стороны она всего лишь хочет приобрести капитал города для себя. Робот - полицейский оказывает сопротивление управляющему этой организацией Макдагетту, за это управляющий убивает Льюис напарницу Робота - полицейского и приказывает убить и того. Робокоп объединяется с повстанцами и полицией для войны с Макдагетом и его «лживой» организацией, и для этого он снаряжается реактивным ранцем.

Выпущено: США
Студия: Orion Pictures, Metro-Goldwyn-Mayer
Продолжительность: 01:44:50
Перевод: Дублированный (лицензия) + Оригинал
Файл
Кодек: x264
Качество: BDRip (источник: Blu-ray Disc)
Видео: 1920x1040 (1,85:1), 23.976 fps, 9315 kbps
Аудио #1: AC-3, 6 ch, 640 kbps (Rus)
Аудио #2: AC-3, 6 ch, 640 kbps (Eng)
Субтитры: Русские, Английские
Скачать: семпл
Скриншоты

MI

Общее
Уникальный идентификатор : 233013841703404543410315133902344017237 (0xAF4CD56185D465529CBE50EC096DD555)
Полное имя : E:RoboCop. Trilogy (1987-1993) by N1NT3NDORoboCop.3.1993.BDRip.1080p.Rus.Eng.mkv
Формат : Matroska
Версия формата : Version 2
Размер файла : 7,76 Гбайт
Продолжительность : 1 ч. 44 м.
Общий поток : 10,6 Мбит/сек
Название фильма : Робокоп 3 / RoboCop 3 (1993)
Дата кодирования : UTC 2013-09-23 05:16:05
Программа кодирования : mkvmerge v5.8.0 ('No Sleep / Pillow') built on Sep 2 2012 15:37:04
Библиотека кодирования : libebml v1.2.3 + libmatroska v1.3.0
Attachment : Yes
Видео
Идентификатор : 1
Формат : AVC
Формат/Информация : Advanced Video Codec
Профиль формата : [email protected]/* */
Параметр CABAC формата : Да
Параметр ReFrames формата : 4 кадра
Идентификатор кодека : V_MPEG4/ISO/AVC
Продолжительность : 1 ч. 44 м.
Битрейт : 9315 Кбит/сек
Ширина : 1920 пикселей
Высота : 1040 пикселей
Соотношение сторон : 1,85:1
Режим частоты кадров : Постоянный
Частота кадров : 23,976 кадра/сек
Цветовое пространство : YUV
Субдискретизация насыщенности : 4:2:0
Битовая глубина : 8 бит
Тип развёртки : Прогрессивная
Бит/(Пиксели*Кадры) : 0.195
Размер потока : 6,66 Гбайт (86%)
Заголовок : Release by N1NT3NDO
Библиотека кодирования : x264 core 138 r2358 9e941d1
Настройки программы : cabac=1 / ref=4 / deblock=1:-3:-3 / analyse=0x3:0x133 / me=umh / subme=10 / psy=1 / psy_rd=1.00:0.00 / mixed_ref=1 / me_range=32 / chroma_me=1 / trellis=2 / 8x8dct=1 / cqm=0 / deadzone=21,11 / fast_pskip=0 / chroma_qp_offset=-2 / threads=12 / lookahead_threads=1 / sliced_threads=0 / nr=0 / decimate=0 / interlaced=0 / bluray_compat=0 / constrained_intra=0 / bframes=6 / b_pyramid=2 / b_adapt=2 / b_bias=0 / direct=3 / weightb=1 / open_gop=0 / weightp=2 / keyint=240 / keyint_min=23 / scenecut=40 / intra_refresh=0 / rc_lookahead=80 / rc=2pass / mbtree=0 / bitrate=9315 / ratetol=1.0 / qcomp=0.60 / qpmin=0 / qpmax=69 / qpstep=4 / cplxblur=20.0 / qblur=0.5 / vbv_maxrate=50000 / vbv_bufsize=62500 / nal_hrd=none / ip_ratio=1.40 / pb_ratio=1.30 / aq=1:1.00
Язык : English
Default : Да
Forced : Нет
Аудио #1
Идентификатор : 2
Формат : AC-3
Формат/Информация : Audio Coding 3
Расширение режима : CM (complete main)
Параметр Endianness формата : Big
Идентификатор кодека : A_AC3
Продолжительность : 1 ч. 44 м.
Вид битрейта : Постоянный
Битрейт : 640 Кбит/сек
Каналы : 6 каналов
Расположение каналов : Front: L C R, Side: L R, LFE
Частота : 48,0 КГц
Битовая глубина : 16 бит
Метод сжатия : С потерями
Размер потока : 480 Мбайт (6%)
Заголовок : Rus
Язык : Russian
Default : Да
Forced : Нет
Аудио #2
Идентификатор : 3
Формат : AC-3
Формат/Информация : Audio Coding 3
Расширение режима : CM (complete main)
Параметр Endianness формата : Big
Идентификатор кодека : A_AC3
Продолжительность : 1 ч. 44 м.
Вид битрейта : Постоянный
Битрейт : 640 Кбит/сек
Каналы : 6 каналов
Расположение каналов : Front: L C R, Side: L R, LFE
Частота : 48,0 КГц
Битовая глубина : 16 бит
Метод сжатия : С потерями
Размер потока : 480 Мбайт (6%)
Заголовок : Eng
Язык : English
Default : Нет
Forced : Нет
Текст #1
Идентификатор : 4
Формат : UTF-8
Идентификатор кодека : S_TEXT/UTF8
Идентификатор кодека/Информация : UTF-8 Plain Text
Заголовок : Rus
Язык : Russian
Default : Нет
Forced : Нет
Текст #2
Идентификатор : 5
Формат : UTF-8
Идентификатор кодека : S_TEXT/UTF8
Идентификатор кодека/Информация : UTF-8 Plain Text
Заголовок : Eng
Язык : English
Default : Нет
Forced : Нет
Меню
00:00:00.000 : en:Main Title/Eviction
00:08:00.938 : en:Arming Up
00:12:33.586 : en:Police Activity
00:21:09.601 : en:Splatter Punks
00:24:01.773 : en:Judgement Calls
00:32:53.680 : en:Serve The Public
00:40:17.373 : en:Underground
00:46:17.608 : en:Reparations
00:52:48.874 : en:Good As New
01:01:45.910 : en:Unfinished Business
01:13:26.360 : en:Invasion
01:19:11.163 : en:Good Vs. Evil
01:27:13.978 : en:Airborne
01:31:47.793 : en:Reverse Circuitry
01:35:47.158 : en:Respect And Honor
01:37:34.473 : en:End Credits

x264

x264 [info]: frame I:1274 Avg QP:17.85 size:159810
x264 [info]: frame P:33931 Avg QP:20.22 size: 76757
x264 [info]: frame B:115608 Avg QP:21.99 size: 39011
x264 [info]: consecutive B-frames: 3.1% 3.2% 9.7% 12.3% 16.7% 47.5% 7.6%
[Профиль] [ЛС]
Показать сообщения:    

Текущее время: Сегодня 15:57

Часовой пояс: GMT



Вы не можете начинать темы
Вы не можете отвечать на сообщения
Вы не можете редактировать свои сообщения
Вы не можете удалять свои сообщения
Вы не можете голосовать в опросах
Вы не можете прикреплять файлы к сообщениям
Вы не можете скачивать файлы