Робокоп: Трилогия / RoboCop: Trilogy (1987-1993) BDRip-AVC | D, P, A

 
Автор Сообщение

Russian Mafia ®

Пол:

Стаж: 1 год 8 месяцев

Сообщений: 4257



Награды: 10 (Подробнее)

Mega Seeder 4 (Количество: 1) Mega Seeder 5 (Количество: 1) Mega Seeder 1 (Количество: 1)
Торрент-статистика

Создавать темы 24-Мар-2016 12:55

[Цитировать]

Название: Робокоп: Трилогия
Оригинальное название: RoboCop: Trilogy (1987-1993) BDRip-AVC
Жанр: Фантастика, Боевик, Криминал
Год выхода: 1987 / 1990 / 1993
Режиссеры: Пол Верховен, Ирвин Кершнер, Фред Деккер

Робокоп (1987)

Информация о фильме
Название: Робокоп
Оригинальное название: RoboCop
Год выхода: 1987
Жанр: Фантастика, Боевик, Криминал
Режиссер: Пол Верховен
В ролях: Питер Уэллер, Нэнси Аллен, Дэн О’Херлихи, Ронни Кокс, Кертвуд Смит, Мигель Феррер, Роберт Дукуй, Рэй Уайз, Фелтон Перри, Пол МакКрейн и др.
О фильме:
После гибели одного из лучших полицейских врачи-экспериментаторы создают из него неуязвимого киборга Робокопа, который в одиночку борется с бандой преступников. Однако прочная броня не спасает Робокопа от мучительных, обрывочных воспоминаний о прошлом: он постоянно видит кошмарные сны, в которых погибает от рук жестоких преступников. Теперь он не только ждёт правосудия,… но и жаждет мести!
Страна: США
Продолжительность: 01:43:16
Перевод: Многоголосный, Авторский
Файл
Кодек: h.264
Качество: BDRip-AVC
Видео: MPEG-4, 1184x640, 23.976 fps ~4000 kbps
Звук:
1) 48 KHz, AC3, 6 ch ~448 Kbps - MVO [Blu-ray CEE]
2) 48 KHz, AC3, 6 ch ~384 Kbps - MVO [Superbit]
3) 48 KHz, AC3, 6 ch ~384 Kbps - MVO [Киномания]
4) 48 KHz, AC3, 6 ch ~384 Kbps - AVO [Живов]
5) 48 KHz, AC3, 6 ch ~448 Kbps - Original
Субтитры: Русские, английские
Media Info:
Скрытый текстGeneral
Unique ID : 185539419855288904135951462212220402284 (0x8B9597AB383742D8BB071F136B56BA6C)
Format : Matroska
Format version : Version 4 / Version 2
File size : 4.36 GiB
Duration : 1h 43mn
Overall bit rate : 6 045 Kbps
Movie name : RoboCop (1987) Director's Cut
Encoded date : UTC
Writing application : mkvmerge v8.4.0 ('A better way to fly') 64bit
Writing library : Lavf55.12.0
Attachements : Cover.jpg
Video
ID : 1
Format : AVC
Format/Info : Advanced Video Codec
Format profile : High@L4.1
Format settings, CABAC : Yes
Format settings, ReFrames : 9 frames
Codec ID : V_MPEG4/ISO/AVC
Duration : 1h 43mn
Bit rate : 4 000 Kbps
Width : 1 184 pixels
Height : 640 pixels
Display aspect ratio : 1.85:1
Frame rate mode : Constant
Frame rate : 23.976 fps
Color space : YUV
Chroma subsampling : 4:2:0
Bit depth : 8 bits
Scan type : Progressive
Bits/(Pixel*Frame) : 0.220
Stream size : 2.80 GiB (64%)
Title : MPEG-4, 1184x640, 23.976 fps ~4000 kbps
Writing library : x264 core 142 r2479 dd79a61
Encoding settings : cabac=1 / ref=9 / deblock=1:-3:-3 / analyse=0x3:0x133 / me=umh / subme=11 / psy=1 / psy_rd=1.00:0.18 / mixed_ref=1 / me_range=48 / chroma_me=1 / trellis=2 / 8x8dct=1 / cqm=0 / deadzone=21,11 / fast_pskip=0 / chroma_qp_offset=-3 / threads=6 / lookahead_threads=1 / sliced_threads=0 / nr=0 / decimate=1 / interlaced=0 / bluray_compat=0 / constrained_intra=0 / bframes=16 / b_pyramid=2 / b_adapt=2 / b_bias=0 / direct=3 / weightb=1 / open_gop=0 / weightp=2 / keyint=240 / keyint_min=24 / scenecut=40 / intra_refresh=0 / rc_lookahead=60 / rc=2pass / mbtree=0 / bitrate=4000 / ratetol=1.0 / qcomp=0.60 / qpmin=0 / qpmax=69 / qpstep=4 / cplxblur=20.0 / qblur=0.5 / vbv_maxrate=62500 / vbv_bufsize=78125 / nal_hrd=none / filler=0 / ip_ratio=1.40 / pb_ratio=1.30 / aq=1:1.00
Language : English
Default : Yes
Forced : No
Color range : Limited
Color primaries : BT.709
Transfer characteristics : BT.709
Matrix coefficients : BT.709
DURATION : 01:43:16.899000000
NUMBER_OF_FRAMES : 148577
NUMBER_OF_BYTES : 3093469138
_STATISTICS_WRITING_APP : mkvmerge v8.4.0 ('A better way to fly') 64bit
_STATISTICS_WRITING_DATE_UT : 2015-12-10 17:45:43
_STATISTICS_TAGS : BPS DURATION NUMBER_OF_FRAMES NUMBER_OF_BYTES
Audio #1
ID : 2
Format : AC-3
Format/Info : Audio Coding 3
Mode extension : CM (complete main)
Format settings, Endianness : Big
Codec ID : A_AC3
Duration : 1h 43mn
Bit rate mode : Constant
Bit rate : 448 Kbps
Channel(s) : 6 channels
Channel positions : Front: L C R, Side: L R, LFE
Sampling rate : 48.0 KHz
Compression mode : Lossy
Delay relative to video : -5ms
Stream size : 331 MiB (7%)
Title : 48 KHz, AC3, 6 ch ~448 Kbps - MVO [Blu-ray CEE]
Language : Russian
Default : Yes
Forced : No
DURATION : 01:43:16.928000000
NUMBER_OF_FRAMES : 193654
NUMBER_OF_BYTES : 347027968
_STATISTICS_WRITING_APP : mkvmerge v8.4.0 ('A better way to fly') 64bit
_STATISTICS_WRITING_DATE_UT : 2015-12-10 17:45:43
_STATISTICS_TAGS : BPS DURATION NUMBER_OF_FRAMES NUMBER_OF_BYTES
Audio #2
ID : 3
Format : AC-3
Format/Info : Audio Coding 3
Mode extension : CM (complete main)
Format settings, Endianness : Big
Codec ID : A_AC3
Duration : 1h 43mn
Bit rate mode : Constant
Bit rate : 384 Kbps
Channel(s) : 6 channels
Channel positions : Front: L C R, Side: L R, LFE
Sampling rate : 48.0 KHz
Compression mode : Lossy
Delay relative to video : -5ms
Stream size : 284 MiB (6%)
Title : 48 KHz, AC3, 6 ch ~384 Kbps - MVO [Superbit]
Language : Russian
Default : No
Forced : No
DURATION : 01:43:16.928000000
NUMBER_OF_FRAMES : 193654
NUMBER_OF_BYTES : 297452544
_STATISTICS_WRITING_APP : mkvmerge v8.4.0 ('A better way to fly') 64bit
_STATISTICS_WRITING_DATE_UT : 2015-12-10 17:45:43
_STATISTICS_TAGS : BPS DURATION NUMBER_OF_FRAMES NUMBER_OF_BYTES
Audio #3
ID : 4
Format : AC-3
Format/Info : Audio Coding 3
Mode extension : CM (complete main)
Format settings, Endianness : Big
Codec ID : A_AC3
Duration : 1h 43mn
Bit rate mode : Constant
Bit rate : 384 Kbps
Channel(s) : 6 channels
Channel positions : Front: L C R, Side: L R, LFE
Sampling rate : 48.0 KHz
Compression mode : Lossy
Stream size : 284 MiB (6%)
Title : 48 KHz, AC3, 6 ch ~384 Kbps - MVO [Киномания]
Language : Russian
Default : No
Forced : No
DURATION : 01:43:16.960000000
NUMBER_OF_FRAMES : 193655
NUMBER_OF_BYTES : 297454080
_STATISTICS_WRITING_APP : mkvmerge v8.4.0 ('A better way to fly') 64bit
_STATISTICS_WRITING_DATE_UT : 2015-12-10 17:45:43
_STATISTICS_TAGS : BPS DURATION NUMBER_OF_FRAMES NUMBER_OF_BYTES
Audio #4
ID : 5
Format : AC-3
Format/Info : Audio Coding 3
Mode extension : CM (complete main)
Format settings, Endianness : Big
Codec ID : A_AC3
Duration : 1h 43mn
Bit rate mode : Constant
Bit rate : 384 Kbps
Channel(s) : 6 channels
Channel positions : Front: L C R, Side: L R, LFE
Sampling rate : 48.0 KHz
Compression mode : Lossy
Stream size : 284 MiB (6%)
Title : 48 KHz, AC3, 6 ch ~384 Kbps - AVO [Живов]
Language : Russian
Default : No
Forced : No
DURATION : 01:43:16.928000000
NUMBER_OF_FRAMES : 193654
NUMBER_OF_BYTES : 297452544
_STATISTICS_WRITING_APP : mkvmerge v8.4.0 ('A better way to fly') 64bit
_STATISTICS_WRITING_DATE_UT : 2015-12-10 17:45:43
_STATISTICS_TAGS : BPS DURATION NUMBER_OF_FRAMES NUMBER_OF_BYTES
Audio #5
ID : 6
Format : AC-3
Format/Info : Audio Coding 3
Mode extension : CM (complete main)
Format settings, Endianness : Big
Codec ID : A_AC3
Duration : 1h 43mn
Bit rate mode : Constant
Bit rate : 448 Kbps
Channel(s) : 6 channels
Channel positions : Front: L C R, Side: L R, LFE
Sampling rate : 48.0 KHz
Compression mode : Lossy
Delay relative to video : -5ms
Stream size : 331 MiB (7%)
Title : 48 KHz, AC3, 6 ch ~448 Kbps - Original
Language : English
Default : No
Forced : No
DURATION : 01:43:16.896000000
NUMBER_OF_FRAMES : 193653
NUMBER_OF_BYTES : 347026176
_STATISTICS_WRITING_APP : mkvmerge v8.4.0 ('A better way to fly') 64bit
_STATISTICS_WRITING_DATE_UT : 2015-12-10 17:45:43
_STATISTICS_TAGS : BPS DURATION NUMBER_OF_FRAMES NUMBER_OF_BYTES
Text #1
ID : 7
Format : ASS
Codec ID : S_TEXT/ASS
Codec ID/Info : Advanced Sub Station Alpha
Compression mode : Lossless
Language : Russian
Default : No
Forced : No
DURATION : 01:42:13.052000000
NUMBER_OF_FRAMES : 1192
NUMBER_OF_BYTES : 92809
_STATISTICS_WRITING_APP : mkvmerge v8.4.0 ('A better way to fly') 64bit
_STATISTICS_WRITING_DATE_UT : 2015-12-10 17:45:43
_STATISTICS_TAGS : BPS DURATION NUMBER_OF_FRAMES NUMBER_OF_BYTES
Text #2
ID : 8
Format : ASS
Codec ID : S_TEXT/ASS
Codec ID/Info : Advanced Sub Station Alpha
Compression mode : Lossless
Language : English
Default : No
Forced : No
DURATION : 01:36:02.467000000
NUMBER_OF_FRAMES : 1329
NUMBER_OF_BYTES : 73400
_STATISTICS_WRITING_APP : mkvmerge v8.4.0 ('A better way to fly') 64bit
_STATISTICS_WRITING_DATE_UT : 2015-12-10 17:45:43
_STATISTICS_TAGS : BPS DURATION NUMBER_OF_FRAMES NUMBER_OF_BYTES
Menu
00:00:00.000 : :Chapter 1
00:06:45.279 : :Chapter 2
00:14:07.638 : :Chapter 3
00:17:32.801 : :Chapter 4
00:26:40.640 : :Chapter 5
00:34:28.232 : :Chapter 6
00:40:33.014 : :Chapter 7
00:45:15.504 : :Chapter 8
00:49:46.733 : :Chapter 9
00:57:48.214 : :Chapter 10
01:01:41.322 : :Chapter 11
01:08:25.267 : :Chapter 12
01:16:00.013 : :Chapter 13
01:22:46.670 : :Chapter 14
01:33:54.045 : :Chapter 15
01:37:04.985 : :Chapter 16

Скриншоты

Робокоп 2 (1990)

Информация о фильме
Название: Робокоп 2
Оригинальное название: RoboCop 2
Год выхода: 1990
Жанр: Фантастика, Боевик, Криминал
Режиссер: Ирвин Кершнер
В ролях: Питер Уэллер, Нэнси Аллен, Дэн О’Херлихи, Том Нунен, Белинда Бауэр, Гэбриел Дэймон, Джон Гловер, Марио Мачадо, Лиза Гиббонс, Джон Ингл и др.
О фильме:
Робот — полицейский продолжает патрулировать улицы Детройта. На этот раз ему предстоит уничтожить фабрику, которая незаконно производит новый вид наркотиков, а также сразиться с роботом — убийцей, созданным в секретной лаборатории, чтобы убрать Робокопа.
Страна: США
Продолжительность: 01:43:16
Перевод: Дублированный, Многоголосный, Авторский
Файл
Кодек: h.264
Качество: BDRip-AVC
Видео: MPEG-4, 1180x640, 23.976 fps ~3200 kbps
Звук:
1) 48 KHz, AC3, 6 ch ~448 Kbps - Dub
2) 48 KHz, AC3, 6 ch ~384 Kbps - MVO [Киномания]
3) 48 KHz, AC3, 6 ch ~384 Kbps - AVO [Гаврилов]
4) 48 KHz, AC3, 6 ch ~448 Kbps - AVO [Карцев]
5) 48 KHz, AC3, 6 ch ~448 Kbps - Original
Субтитры: Русские, английские
Media Info:
Скрытый текстGeneral
Unique ID : 246264115450780996667427681937385764455 (0xB944BE509B768D479244F56126C6B667)
Format : Matroska
Format version : Version 4 / Version 2
File size : 4.33 GiB
Duration : 1h 56mn
Overall bit rate : 5 311 Kbps
Movie name : RoboCop 2 (1990)
Encoded date : UTC
Writing application : mkvmerge v8.4.0 ('A better way to fly') 64bit
Writing library : Lavf55.12.0
Attachements : Cover.jpg
Video
ID : 1
Format : AVC
Format/Info : Advanced Video Codec
Format profile : High@L4.1
Format settings, CABAC : Yes
Format settings, ReFrames : 10 frames
Codec ID : V_MPEG4/ISO/AVC
Duration : 1h 56mn
Bit rate : 3 200 Kbps
Width : 1 180 pixels
Height : 640 pixels
Display aspect ratio : 1.85:1
Frame rate mode : Constant
Frame rate : 23.976 fps
Color space : YUV
Chroma subsampling : 4:2:0
Bit depth : 8 bits
Scan type : Progressive
Bits/(Pixel*Frame) : 0.177
Stream size : 2.52 GiB (58%)
Title : MPEG-4, 1180x640, 23.976 fps ~3200 kbps
Writing library : x264 core 142 r2479 dd79a61
Encoding settings : cabac=1 / ref=10 / deblock=1:-3:-3 / analyse=0x3:0x133 / me=umh / subme=11 / psy=1 / psy_rd=1.00:0.16 / mixed_ref=1 / me_range=48 / chroma_me=1 / trellis=2 / 8x8dct=1 / cqm=0 / deadzone=21,11 / fast_pskip=0 / chroma_qp_offset=-3 / threads=6 / lookahead_threads=1 / sliced_threads=0 / nr=0 / decimate=1 / interlaced=0 / bluray_compat=0 / constrained_intra=0 / bframes=16 / b_pyramid=2 / b_adapt=2 / b_bias=0 / direct=3 / weightb=1 / open_gop=0 / weightp=2 / keyint=240 / keyint_min=24 / scenecut=40 / intra_refresh=0 / rc_lookahead=60 / rc=2pass / mbtree=0 / bitrate=3200 / ratetol=1.0 / qcomp=0.60 / qpmin=0 / qpmax=69 / qpstep=4 / cplxblur=20.0 / qblur=0.5 / vbv_maxrate=62500 / vbv_bufsize=78125 / nal_hrd=none / filler=0 / ip_ratio=1.40 / pb_ratio=1.30 / aq=1:1.00
Language : English
Default : Yes
Forced : No
Color range : Limited
Color primaries : BT.709
Transfer characteristics : BT.709
Matrix coefficients : BT.709
DURATION : 01:56:40.035000000
NUMBER_OF_FRAMES : 167833
NUMBER_OF_BYTES : 2796188776
_STATISTICS_WRITING_APP : mkvmerge v8.4.0 ('A better way to fly') 64bit
_STATISTICS_WRITING_DATE_UT : 2015-12-12 09:36:04
_STATISTICS_TAGS : BPS DURATION NUMBER_OF_FRAMES NUMBER_OF_BYTES
Audio #1
ID : 2
Format : AC-3
Format/Info : Audio Coding 3
Mode extension : CM (complete main)
Format settings, Endianness : Big
Codec ID : A_AC3
Duration : 1h 56mn
Bit rate mode : Constant
Bit rate : 448 Kbps
Channel(s) : 6 channels
Channel positions : Front: L C R, Side: L R, LFE
Sampling rate : 48.0 KHz
Compression mode : Lossy
Delay relative to video : -5ms
Stream size : 374 MiB (8%)
Title : 48 KHz, AC3, 6 ch ~448 Kbps - Dub
Language : Russian
Default : Yes
Forced : No
DURATION : 01:56:40.032000000
NUMBER_OF_FRAMES : 218751
NUMBER_OF_BYTES : 392001792
_STATISTICS_WRITING_APP : mkvmerge v8.4.0 ('A better way to fly') 64bit
_STATISTICS_WRITING_DATE_UT : 2015-12-12 09:36:04
_STATISTICS_TAGS : BPS DURATION NUMBER_OF_FRAMES NUMBER_OF_BYTES
Audio #2
ID : 3
Format : AC-3
Format/Info : Audio Coding 3
Mode extension : CM (complete main)
Format settings, Endianness : Big
Codec ID : A_AC3
Duration : 1h 56mn
Bit rate mode : Constant
Bit rate : 384 Kbps
Channel(s) : 6 channels
Channel positions : Front: L C R, Side: L R, LFE
Sampling rate : 48.0 KHz
Compression mode : Lossy
Stream size : 320 MiB (7%)
Title : 48 KHz, AC3, 6 ch ~384 Kbps - MVO [Киномания]
Language : Russian
Default : No
Forced : No
DURATION : 01:56:40.064000000
NUMBER_OF_FRAMES : 218752
NUMBER_OF_BYTES : 336003072
_STATISTICS_WRITING_APP : mkvmerge v8.4.0 ('A better way to fly') 64bit
_STATISTICS_WRITING_DATE_UT : 2015-12-12 09:36:04
_STATISTICS_TAGS : BPS DURATION NUMBER_OF_FRAMES NUMBER_OF_BYTES
Audio #3
ID : 4
Format : AC-3
Format/Info : Audio Coding 3
Mode extension : CM (complete main)
Format settings, Endianness : Big
Codec ID : A_AC3
Duration : 1h 56mn
Bit rate mode : Constant
Bit rate : 384 Kbps
Channel(s) : 6 channels
Channel positions : Front: L C R, Side: L R, LFE
Sampling rate : 48.0 KHz
Compression mode : Lossy
Delay relative to video : -5ms
Stream size : 320 MiB (7%)
Title : 48 KHz, AC3, 6 ch ~384 Kbps - AVO [Гаврилов]
Language : Russian
Default : No
Forced : No
DURATION : 01:56:40.032000000
NUMBER_OF_FRAMES : 218751
NUMBER_OF_BYTES : 336001536
_STATISTICS_WRITING_APP : mkvmerge v8.4.0 ('A better way to fly') 64bit
_STATISTICS_WRITING_DATE_UT : 2015-12-12 09:36:04
_STATISTICS_TAGS : BPS DURATION NUMBER_OF_FRAMES NUMBER_OF_BYTES
Audio #4
ID : 5
Format : AC-3
Format/Info : Audio Coding 3
Mode extension : CM (complete main)
Format settings, Endianness : Big
Codec ID : A_AC3
Duration : 1h 56mn
Bit rate mode : Constant
Bit rate : 448 Kbps
Channel(s) : 6 channels
Channel positions : Front: L C R, Side: L R, LFE
Sampling rate : 48.0 KHz
Compression mode : Lossy
Stream size : 374 MiB (8%)
Title : 48 KHz, AC3, 6 ch ~448 Kbps - AVO [Карцев]
Language : Russian
Default : No
Forced : No
DURATION : 01:56:40.064000000
NUMBER_OF_FRAMES : 218752
NUMBER_OF_BYTES : 392003584
_STATISTICS_WRITING_APP : mkvmerge v8.4.0 ('A better way to fly') 64bit
_STATISTICS_WRITING_DATE_UT : 2015-12-12 09:36:04
_STATISTICS_TAGS : BPS DURATION NUMBER_OF_FRAMES NUMBER_OF_BYTES
Audio #5
ID : 6
Format : AC-3
Format/Info : Audio Coding 3
Mode extension : CM (complete main)
Format settings, Endianness : Big
Codec ID : A_AC3
Duration : 1h 56mn
Bit rate mode : Constant
Bit rate : 448 Kbps
Channel(s) : 6 channels
Channel positions : Front: L C R, Side: L R, LFE
Sampling rate : 48.0 KHz
Compression mode : Lossy
Delay relative to video : -5ms
Stream size : 374 MiB (8%)
Title : 48 KHz, AC3, 6 ch ~448 Kbps - Original
Language : English
Default : No
Forced : No
DURATION : 01:56:40.032000000
NUMBER_OF_FRAMES : 218751
NUMBER_OF_BYTES : 392001792
_STATISTICS_WRITING_APP : mkvmerge v8.4.0 ('A better way to fly') 64bit
_STATISTICS_WRITING_DATE_UT : 2015-12-12 09:36:04
_STATISTICS_TAGS : BPS DURATION NUMBER_OF_FRAMES NUMBER_OF_BYTES
Text #1
ID : 7
Format : ASS
Codec ID : S_TEXT/ASS
Codec ID/Info : Advanced Sub Station Alpha
Compression mode : Lossless
Language : Russian
Default : No
Forced : No
DURATION : 01:55:04.480000000
NUMBER_OF_FRAMES : 35
NUMBER_OF_BYTES : 2468
_STATISTICS_WRITING_APP : mkvmerge v8.4.0 ('A better way to fly') 64bit
_STATISTICS_WRITING_DATE_UT : 2015-12-12 09:36:04
_STATISTICS_TAGS : BPS DURATION NUMBER_OF_FRAMES NUMBER_OF_BYTES
Text #2
ID : 8
Format : ASS
Codec ID : S_TEXT/ASS
Codec ID/Info : Advanced Sub Station Alpha
Compression mode : Lossless
Language : Russian
Default : No
Forced : No
DURATION : 01:55:34.677000000
NUMBER_OF_FRAMES : 922
NUMBER_OF_BYTES : 84948
_STATISTICS_WRITING_APP : mkvmerge v8.4.0 ('A better way to fly') 64bit
_STATISTICS_WRITING_DATE_UT : 2015-12-12 09:36:04
_STATISTICS_TAGS : BPS DURATION NUMBER_OF_FRAMES NUMBER_OF_BYTES
Text #3
ID : 9
Format : ASS
Codec ID : S_TEXT/ASS
Codec ID/Info : Advanced Sub Station Alpha
Compression mode : Lossless
Language : Russian
Default : No
Forced : No
DURATION : 01:49:30.655000000
NUMBER_OF_FRAMES : 902
NUMBER_OF_BYTES : 85050
_STATISTICS_WRITING_APP : mkvmerge v8.4.0 ('A better way to fly') 64bit
_STATISTICS_WRITING_DATE_UT : 2015-12-12 09:36:04
_STATISTICS_TAGS : BPS DURATION NUMBER_OF_FRAMES NUMBER_OF_BYTES
Text #4
ID : 10
Format : ASS
Codec ID : S_TEXT/ASS
Codec ID/Info : Advanced Sub Station Alpha
Compression mode : Lossless
Language : English
Default : No
Forced : No
DURATION : 01:55:48.691000000
NUMBER_OF_FRAMES : 1505
NUMBER_OF_BYTES : 78056
_STATISTICS_WRITING_APP : mkvmerge v8.4.0 ('A better way to fly') 64bit
_STATISTICS_WRITING_DATE_UT : 2015-12-12 09:36:04
_STATISTICS_TAGS : BPS DURATION NUMBER_OF_FRAMES NUMBER_OF_BYTES
Menu
00:00:00.000 : :Chapter 1
00:08:17.830 : :Chapter 2
00:13:54.875 : :Chapter 3
00:20:09.625 : :Chapter 4
00:27:09.628 : :Chapter 5
00:31:46.946 : :Chapter 6
00:43:42.703 : :Chapter 7
00:50:42.664 : :Chapter 8
00:57:33.324 : :Chapter 9
01:06:24.021 : :Chapter 10
01:12:43.275 : :Chapter 11
01:19:34.353 : :Chapter 12
01:27:10.809 : :Chapter 13
01:36:35.373 : :Chapter 14
01:48:11.359 : :Chapter 15
01:50:28.330 : :Chapter 16

Скриншоты

Робокоп 3 (1993)

Информация о фильме
Название: Робокоп 3
Оригинальное название: RoboCop 3
Год выхода: 1993
Жанр: Фантастика, Боевик, Криминал
Режиссер: Фред Деккер
В ролях: Роберт Джон Бёрк, Нэнси Аллен, Рип Торн, Джон Касл, Стивен Рут, Си Си Эйч Паундер, Дэниэл фон Барген, Реми Райан, Роберт Дукуй, Марио Мачадо и др.
О фильме:
Могущеcтвенная корпорация OCP одержима идеей строительства утопического Дельта-Сити на месте Дейтройта. С этой целью людей массово лишают жилищ, в городе царит преступность и коррупция. Организовано повстанческое движение, против которого выступает Робокоп и его напарница Льюис, чтобы в последний момент перейти на сторону восставших жителей города. ОСР намерена избавиться от Робокопа. С этой целью из Японии прибывает терминатор-самурай…
Страна: США
Продолжительность: 01:44:50
Перевод: Дублированный, Многоголосный, Авторский
Файл
Кодек: h.264
Качество: BDRip-AVC
Видео: MPEG-4, 1180x640, 23.976 fps ~3700 kbps
Звук:
1) 48 KHz, AC3, 6 ch ~448 Kbps - Dub
2) 48 KHz, AC3, 6 ch ~384 Kbps - MVO [Киномания]
3) 48 KHz, AC3, 6 ch ~448 Kbps - DVO [НТВ]
4) 48 KHz, AC3, 6 ch ~448 Kbps - AVO [Живов]
5) 48 KHz, AC3, 6 ch ~448 Kbps - Original
Субтитры: Русские, английские
Media Info:
Скрытый текстGeneral
Unique ID : 215734478189025265153275058928906531084 (0xA24CF2FC0675B5168E3DD0817529F10C)
Format : Matroska
Format version : Version 4 / Version 2
File size : 4.30 GiB
Duration : 1h 44mn
Overall bit rate : 5 876 Kbps
Movie name : RoboCop 3 (1993)
Encoded date : UTC
Writing application : mkvmerge v8.4.0 ('A better way to fly') 64bit
Writing library : Lavf55.12.0
Attachements : Cover.jpg
Video
ID : 1
Format : AVC
Format/Info : Advanced Video Codec
Format profile : High@L4.1
Format settings, CABAC : Yes
Format settings, ReFrames : 10 frames
Codec ID : V_MPEG4/ISO/AVC
Duration : 1h 44mn
Bit rate : 3 700 Kbps
Width : 1 180 pixels
Height : 640 pixels
Display aspect ratio : 1.85:1
Frame rate mode : Constant
Frame rate : 23.976 fps
Color space : YUV
Chroma subsampling : 4:2:0
Bit depth : 8 bits
Scan type : Progressive
Bits/(Pixel*Frame) : 0.204
Stream size : 2.62 GiB (61%)
Title : MPEG-4, 1180x640, 23.976 fps ~3700 kbps
Writing library : x264 core 142 r2479 dd79a61
Encoding settings : cabac=1 / ref=10 / deblock=1:-2:-2 / analyse=0x3:0x133 / me=umh / subme=11 / psy=1 / psy_rd=1.00:0.15 / mixed_ref=1 / me_range=48 / chroma_me=1 / trellis=2 / 8x8dct=1 / cqm=0 / deadzone=21,11 / fast_pskip=0 / chroma_qp_offset=-3 / threads=6 / lookahead_threads=1 / sliced_threads=0 / nr=0 / decimate=1 / interlaced=0 / bluray_compat=0 / constrained_intra=0 / bframes=16 / b_pyramid=2 / b_adapt=2 / b_bias=0 / direct=3 / weightb=1 / open_gop=0 / weightp=2 / keyint=240 / keyint_min=24 / scenecut=40 / intra_refresh=0 / rc_lookahead=60 / rc=2pass / mbtree=0 / bitrate=3700 / ratetol=1.0 / qcomp=0.60 / qpmin=0 / qpmax=69 / qpstep=4 / cplxblur=20.0 / qblur=0.5 / vbv_maxrate=62500 / vbv_bufsize=78125 / nal_hrd=none / filler=0 / ip_ratio=1.40 / pb_ratio=1.30 / aq=1:1.00
Language : English
Default : Yes
Forced : No
Color range : Limited
Color primaries : BT.709
Transfer characteristics : BT.709
Matrix coefficients : BT.709
DURATION : 01:44:50.159000000
NUMBER_OF_FRAMES : 150813
NUMBER_OF_BYTES : 2906416408
_STATISTICS_WRITING_APP : mkvmerge v8.4.0 ('A better way to fly') 64bit
_STATISTICS_WRITING_DATE_UT : 2015-12-16 19:14:36
_STATISTICS_TAGS : BPS DURATION NUMBER_OF_FRAMES NUMBER_OF_BYTES
Audio #1
ID : 2
Format : AC-3
Format/Info : Audio Coding 3
Mode extension : CM (complete main)
Format settings, Endianness : Big
Codec ID : A_AC3
Duration : 1h 44mn
Bit rate mode : Constant
Bit rate : 448 Kbps
Channel(s) : 6 channels
Channel positions : Front: L C R, Side: L R, LFE
Sampling rate : 48.0 KHz
Compression mode : Lossy
Delay relative to video : -5ms
Stream size : 336 MiB (8%)
Title : 48 KHz, AC3, 6 ch ~448 Kbps - Dub
Language : Russian
Default : Yes
Forced : No
DURATION : 01:44:50.144000000
NUMBER_OF_FRAMES : 196567
NUMBER_OF_BYTES : 352248064
_STATISTICS_WRITING_APP : mkvmerge v8.4.0 ('A better way to fly') 64bit
_STATISTICS_WRITING_DATE_UT : 2015-12-16 19:14:36
_STATISTICS_TAGS : BPS DURATION NUMBER_OF_FRAMES NUMBER_OF_BYTES
Audio #2
ID : 3
Format : AC-3
Format/Info : Audio Coding 3
Mode extension : CM (complete main)
Format settings, Endianness : Big
Codec ID : A_AC3
Duration : 1h 44mn
Bit rate mode : Constant
Bit rate : 384 Kbps
Channel(s) : 6 channels
Channel positions : Front: L C R, Side: L R, LFE
Sampling rate : 48.0 KHz
Compression mode : Lossy
Stream size : 288 MiB (7%)
Title : 48 KHz, AC3, 6 ch ~384 Kbps - MVO [Киномания]
Language : Russian
Default : No
Forced : No
DURATION : 01:44:49.952000000
NUMBER_OF_FRAMES : 196561
NUMBER_OF_BYTES : 301917696
_STATISTICS_WRITING_APP : mkvmerge v8.4.0 ('A better way to fly') 64bit
_STATISTICS_WRITING_DATE_UT : 2015-12-16 19:14:36
_STATISTICS_TAGS : BPS DURATION NUMBER_OF_FRAMES NUMBER_OF_BYTES
Audio #3
ID : 4
Format : AC-3
Format/Info : Audio Coding 3
Mode extension : CM (complete main)
Format settings, Endianness : Big
Codec ID : A_AC3
Duration : 1h 44mn
Bit rate mode : Constant
Bit rate : 448 Kbps
Channel(s) : 6 channels
Channel positions : Front: L C R, Side: L R, LFE
Sampling rate : 48.0 KHz
Compression mode : Lossy
Stream size : 336 MiB (8%)
Title : 48 KHz, AC3, 6 ch ~448 Kbps - DVO [НТВ]
Language : Russian
Default : No
Forced : No
DURATION : 01:44:49.920000000
NUMBER_OF_FRAMES : 196560
NUMBER_OF_BYTES : 352235520
_STATISTICS_WRITING_APP : mkvmerge v8.4.0 ('A better way to fly') 64bit
_STATISTICS_WRITING_DATE_UT : 2015-12-16 19:14:36
_STATISTICS_TAGS : BPS DURATION NUMBER_OF_FRAMES NUMBER_OF_BYTES
Audio #4
ID : 5
Format : AC-3
Format/Info : Audio Coding 3
Mode extension : CM (complete main)
Format settings, Endianness : Big
Codec ID : A_AC3
Duration : 1h 44mn
Bit rate mode : Constant
Bit rate : 448 Kbps
Channel(s) : 6 channels
Channel positions : Front: L C R, Side: L R, LFE
Sampling rate : 48.0 KHz
Compression mode : Lossy
Delay relative to video : -5ms
Stream size : 336 MiB (8%)
Title : 48 KHz, AC3, 6 ch ~448 Kbps - AVO [Живов]
Language : Russian
Default : No
Forced : No
DURATION : 01:44:49.888000000
NUMBER_OF_FRAMES : 196559
NUMBER_OF_BYTES : 352233728
_STATISTICS_WRITING_APP : mkvmerge v8.4.0 ('A better way to fly') 64bit
_STATISTICS_WRITING_DATE_UT : 2015-12-16 19:14:36
_STATISTICS_TAGS : BPS DURATION NUMBER_OF_FRAMES NUMBER_OF_BYTES
Audio #5
ID : 6
Format : AC-3
Format/Info : Audio Coding 3
Mode extension : CM (complete main)
Format settings, Endianness : Big
Codec ID : A_AC3
Duration : 1h 44mn
Bit rate mode : Constant
Bit rate : 448 Kbps
Channel(s) : 6 channels
Channel positions : Front: L C R, Side: L R, LFE
Sampling rate : 48.0 KHz
Compression mode : Lossy
Delay relative to video : -5ms
Stream size : 336 MiB (8%)
Title : 48 KHz, AC3, 6 ch ~448 Kbps - Original
Language : English
Default : No
Forced : No
DURATION : 01:44:50.144000000
NUMBER_OF_FRAMES : 196567
NUMBER_OF_BYTES : 352248064
_STATISTICS_WRITING_APP : mkvmerge v8.4.0 ('A better way to fly') 64bit
_STATISTICS_WRITING_DATE_UT : 2015-12-16 19:14:36
_STATISTICS_TAGS : BPS DURATION NUMBER_OF_FRAMES NUMBER_OF_BYTES
Text #1
ID : 7
Format : ASS
Codec ID : S_TEXT/ASS
Codec ID/Info : Advanced Sub Station Alpha
Compression mode : Lossless
Language : Russian
Default : No
Forced : No
DURATION : 01:36:57.108000000
NUMBER_OF_FRAMES : 821
NUMBER_OF_BYTES : 73202
_STATISTICS_WRITING_APP : mkvmerge v8.4.0 ('A better way to fly') 64bit
_STATISTICS_WRITING_DATE_UT : 2015-12-16 19:14:36
_STATISTICS_TAGS : BPS DURATION NUMBER_OF_FRAMES NUMBER_OF_BYTES
Text #2
ID : 8
Format : ASS
Codec ID : S_TEXT/ASS
Codec ID/Info : Advanced Sub Station Alpha
Compression mode : Lossless
Language : Russian
Default : No
Forced : No
DURATION : 01:37:04.562000000
NUMBER_OF_FRAMES : 820
NUMBER_OF_BYTES : 66394
_STATISTICS_WRITING_APP : mkvmerge v8.4.0 ('A better way to fly') 64bit
_STATISTICS_WRITING_DATE_UT : 2015-12-16 19:14:36
_STATISTICS_TAGS : BPS DURATION NUMBER_OF_FRAMES NUMBER_OF_BYTES
Text #3
ID : 9
Format : ASS
Codec ID : S_TEXT/ASS
Codec ID/Info : Advanced Sub Station Alpha
Compression mode : Lossless
Language : English
Default : No
Forced : No
DURATION : 01:36:57.591000000
NUMBER_OF_FRAMES : 818
NUMBER_OF_BYTES : 46931
_STATISTICS_WRITING_APP : mkvmerge v8.4.0 ('A better way to fly') 64bit
_STATISTICS_WRITING_DATE_UT : 2015-12-16 19:14:36
_STATISTICS_TAGS : BPS DURATION NUMBER_OF_FRAMES NUMBER_OF_BYTES
Menu
00:00:00.000 : :Chapter 1
00:08:01.064 : :Chapter 2
00:12:33.669 : :Chapter 3
00:21:09.726 : :Chapter 4
00:24:02.232 : :Chapter 5
00:32:53.763 : :Chapter 6
00:40:17.623 : :Chapter 7
00:46:17.691 : :Chapter 8
00:52:49.166 : :Chapter 9
01:01:45.994 : :Chapter 10
01:13:26.568 : :Chapter 11
01:19:11.330 : :Chapter 12
01:27:14.103 : :Chapter 13
01:31:47.919 : :Chapter 14
01:35:47.241 : :Chapter 15
01:37:34.640 : :Chapter 16

Скриншоты

[Профиль] [ЛС]
Показать сообщения:    

Текущее время: Сегодня 14:57

Часовой пояс: GMT



Вы не можете начинать темы
Вы не можете отвечать на сообщения
Вы не можете редактировать свои сообщения
Вы не можете удалять свои сообщения
Вы не можете голосовать в опросах
Вы не можете прикреплять файлы к сообщениям
Вы не можете скачивать файлы