Робокар Поли и его друзья / Robocar Poli [01-40 + Bonus] (2011) WEBRip 1080p | D

 
Автор Сообщение

sergej644 ®

Пол:

Стаж: 4 года 11 месяцев

Сообщений: 6038

Откуда: Soviet Union



Награды: Нет

Торрент-статистика

Создавать темы 04-Сен-2014 10:53

[Цитировать]

--Робокар Поли и его друзья / Robocar Poli Информация о фильме
Название: Робокар Поли и его друзья
Оригинальное название: Robocar Poli
Год выхода: 2011
Жанр: мультфильм
Страна: Корея Южная
Студия: RoiVisual, Educational Broadcasting System, Hyundai Motors, Benex Investment, Korea Creative Content Agency
Продолжительность: ~00:12:00 серия
Перевод: Дублированный
Режиссер: Ем Джун Янг
В ролях: Ан Джи Минг, Сон Джан Хук, Ем Джун Янг, Ли Янг Во, Джо Хье Джин, Ко Си Ян, Чо Джи Хун, Ким Хо Пак
О фильме:
В каждой серии Робокар Поли и его дружная команда спешит на помошь всем, кто попал в беду. С помощью этого сериала маленькие зрители смогут изучить правила поведения в городе, общения с друзьями и посторонними, научатся совершать добрые и правильные поступки, а так же смогут обезопасить себя и своих близких в повседневной жизни. Образовательный мультсериал "Робокар Поли" в игровой форме учит детишек правилам дорожного движения, поведению рядом с проезжей частью. И даже будучи пешеходами, они смогут чувствовать себя такими же участниками дорожного движения, как и машины.
Официальный сайт

Содержание

01. Когда сдают тормоза
02. Скулби и его сюрприз
03. История с цементом
04. Новый друг
05. Техосмотр
06. История с привидением
07. Поспешишь, всех насмешишь
08. Похвалите Брунера
09. Доверяй друзьям
10. День рождения Хэлли
11. Куда ты, Клинни
12. Сердитый Мики
13. Я люблю тебя, дедушка!
14. Каждый может ошибиться
15. Конкурс талантов
16. Обещания Скуби
17. Добрая Клини
18. Забывчивый Макс
19. Игра в прятки
20. Мечта Бэнни
21. Дерево дружбы
22. Грязнуля Спуки
23. Как спастись от темноты
24. На чью сторону встать
25. Будьте здоровы
26. Новый друг Вупер
27. Лгунишка Роди Жадный
28. Жадный господин Уиллер
29. Все любят цирк
30. Болото
31. Подарок Мини
32. Лэки, Лэти, Лэпи
33. Давай играть вместе, Пок!
34. Спасибо, Клини
35. Спуки и пчелиный рой
36. Всегда любить себя
37. Экскурсия для Энни
38. Поиски клада
39. Морской друг
40. Любимая внучка
бонус:
ПДД - 14. Как вести себя на парковке
Файл
Кодек: AVC/ AC3
Качество: WEBRip 1080p
Видео: AVC, 1920x1080 (16:9), 25.000 fps, 3 855 Kbps (0.074 bit/pixel)
Звук: AC-3, 48.0 KHz, 2 ch, 192 Kbps, CBR (Russian)

MediaInfo

General
Unique ID                                : 174490706476990684120354262175815288925 (0x8345B00AA01FB52BBC7DF6B43333C85D)
Complete name                            : /Робокар Поли и его друзья.1080p.x264.-merci/1. Когда сдают тормоза.1080p.x264.-merci.mkv
Format                                   : Matroska
Format version                           : Version 2
File size                                : 359 MiB
Duration                                 : 12mn 25s
Overall bit rate                         : 4 047 Kbps
Movie name                               : Робокар Поли / Robokar Poli - мультики про машинки
Encoded date                             : UTC 2014-04-18 10:38:36
Writing application                      : mkvmerge v5.8.0 ('No Sleep / Pillow') built on Sep  2 2012 15:37:04
Writing library                          : libebml v1.2.3 + libmatroska v1.3.0
Video
ID                                       : 1
Format                                   : AVC
Format/Info                              : Advanced Video Codec
Format profile                           : High@L4.0
Format settings, CABAC                   : Yes
Format settings, ReFrames                : 4 frames
Codec ID                                 : V_MPEG4/ISO/AVC
Duration                                 : 12mn 25s
Bit rate                                 : 3 855 Kbps
Width                                    : 1 920 pixels
Height                                   : 1 080 pixels
Display aspect ratio                     : 16:9
Frame rate                               : 25.000 fps
Color space                              : YUV
Chroma subsampling                       : 4:2:0
Bit depth                                : 8 bits
Scan type                                : Progressive
Bits/(Pixel*Frame)                       : 0.074
Stream size                              : 335 MiB (93%)
Title                                    : 1. Когда сдают тормоза.1080p.x264.-merci
Writing library                          : x264 core 125 r2208 d9d2288
Encoding settings                        : cabac=1 / ref=2 / deblock=1:-2:-2 / analyse=0x3:0x133 / me=umh / subme=9 / psy=1 / psy_rd=1.05:0.15 / mixed_ref=1 / me_range=24 / chroma_me=1 / trellis=2 / 8x8dct=1 / cqm=0 / deadzone=21,11 / fast_pskip=0 / chroma_qp_offset=-3 / threads=6 / lookahead_threads=1 / sliced_threads=0 / nr=0 / decimate=0 / interlaced=0 / bluray_compat=0 / constrained_intra=0 / bframes=2 / b_pyramid=2 / b_adapt=2 / b_bias=0 / direct=0 / weightb=1 / open_gop=0 / weightp=2 / keyint=250 / keyint_min=25 / scenecut=40 / intra_refresh=0 / rc=2pass / mbtree=0 / bitrate=3855 / ratetol=1.0 / qcomp=0.75 / qpmin=0 / qpmax=69 / qpstep=4 / cplxblur=20.0 / qblur=0.5 / ip_ratio=1.40 / pb_ratio=1.30 / aq=2:0.80
Language                                 : English
Default                                  : Yes
Forced                                   : No
Color primaries                          : BT.709-5, BT.1361, IEC 61966-2-4, SMPTE RP177
Transfer characteristics                 : BT.709-5, BT.1361
Matrix coefficients                      : BT.709-5, BT.1361, IEC 61966-2-4 709, SMPTE RP177
Audio
ID                                       : 2
Format                                   : AC-3
Format/Info                              : Audio Coding 3
Mode extension                           : CM (complete main)
Format settings, Endianness              : Big
Codec ID                                 : A_AC3
Duration                                 : 12mn 25s
Bit rate mode                            : Constant
Bit rate                                 : 192 Kbps
Channel(s)                               : 2 channels
Channel positions                        : Front: L R
Sampling rate                            : 48.0 KHz
Bit depth                                : 16 bits
Compression mode                         : Lossy
Stream size                              : 17.1 MiB (5%)
Language                                 : Russian
Default                                  : Yes
Forced                                   : No
--
[Профиль] [ЛС]
Показать сообщения:    

Текущее время: Сегодня 14:30

Часовой пояс: GMT



Вы не можете начинать темы
Вы не можете отвечать на сообщения
Вы не можете редактировать свои сообщения
Вы не можете удалять свои сообщения
Вы не можете голосовать в опросах
Вы не можете прикреплять файлы к сообщениям
Вы не можете скачивать файлы