Робинзон Крузо: Очень обитаемый остров / Robinson Crusoe (2016) BDRip 1080р | D | Лицензия

 
Автор Сообщение

ODESSA ®

Пол:

Стаж: 1 год 7 месяцев

Сообщений: 403

Откуда: ODESSA



Награды: Нет

Торрент-статистика

Создавать темы 25-Июл-2016 08:13

[Цитировать]

Информация о фильме
Название: Робинзон Крузо: Очень обитаемый остров
Оригинальное название: Robinson Crusoe
Год выхода: 2016
Жанр: Мультфильм, комедия, приключения
Режиссер: Винсент Кестелут, Бен Стассен
В ролях: Рон Аллен, Джордж Бэббит, Лайла Берзиньш, Илька Бессин, Джои Камен, Джефф Дусетте, Сэнди Фокс, Дитер Халлерворден, Кайл Херберт
О фильме:
Все знают историю о Робинзоне Крузо, попавшем на необитаемый остров. Однако, как же можно назвать его необитаемым, если он населен разнообразными веселыми животными и птицами? Они очень удивились, впервые встретив это странное существо, и даже приняли его за морское чудовище. Попугаю по кличке Вторник и его друзьям — хамелеону, тапиру и другим обитателям острова предстоит поближе познакомиться с незнакомым зверем «человеком» и вместе с ним пережить массу опасных и веселых приключений.

Страна: Франция, Бельгия
Студия: Marv Films, nWave Pictures, Studio Canal, uFilm
Продолжительность: 01:29:37
Перевод: Профессиональный (полное дублирование)
Файл
Кодек: H.264
Качество: BDRip 1080р от SuperMin
Видео: 1920x800 (2.40:1), 6536 kbps, 24.000 fps
Звук: Русский (AC-3, 6ch, 448 kbps)

Лог

x264 [info]: frame I:1203 Avg QP:15.00 size:238265
x264 [info]: frame P:38381 Avg QP:17.91 size: 61850
x264 [info]: frame B:89483 Avg QP:19.95 size: 19358
x264 [info]: consecutive B-frames: 5.3% 9.4% 9.8% 51.8% 17.5% 3.9% 1.1% 0.2% 0.9%
encoded 129067 frames, 3.65 fps, 6535.60 kb/s

MI

General
Unique ID : 236289748083916454805818558156871375881 (0xB1C3C00916369C449CD931A501851C09)
Complete name : G:МУЛЬТЫРобинзон.Крузо.Очень.обитаемый.остров.2016.x264.BDRip.1080p.DUB.mkv
Format : Matroska
Format version : Version 4 / Version 2
File size : 4.37 GiB
Duration : 1h 29mn
Overall bit rate : 6 984 Kbps
Movie name : Робинзон Крузо: Очень обитаемый остров (2016) - #LORDKILL#
Encoded date : UTC 2016-07-25 02:55:47
Writing application : mkvmerge v8.0.0 ('Til The Day That I Die') 64bit
Writing library : libebml v1.3.1 + libmatroska v1.4.2
Video
ID : 1
Format : AVC
Format/Info : Advanced Video Codec
Format profile : High@L4.1
Format settings, CABAC : Yes
Format settings, ReFrames : 5 frames
Codec ID : V_MPEG4/ISO/AVC
Duration : 1h 29mn
Bit rate : 6 536 Kbps
Width : 1 920 pixels
Height : 800 pixels
Display aspect ratio : 2.40:1
Frame rate mode : Constant
Frame rate : 24.000 fps
Color space : YUV
Chroma subsampling : 4:2:0
Bit depth : 8 bits
Scan type : Progressive
Bits/(Pixel*Frame) : 0.177
Stream size : 4.09 GiB (94%)
Writing library : x264 core 148 r2638 7599210
Encoding settings : cabac=1 / ref=5 / deblock=1:-1:-1 / analyse=0x3:0x113 / me=esa / subme=11 / psy=1 / psy_rd=1.00:0.00 / mixed_ref=1 / me_range=32 / chroma_me=1 / trellis=2 / 8x8dct=1 / cqm=0 / deadzone=21,11 / fast_pskip=0 / chroma_qp_offset=-2 / threads=12 / lookahead_threads=2 / sliced_threads=0 / nr=0 / decimate=1 / interlaced=0 / bluray_compat=0 / constrained_intra=0 / bframes=8 / b_pyramid=2 / b_adapt=2 / b_bias=0 / direct=3 / weightb=1 / open_gop=0 / weightp=2 / keyint=240 / keyint_min=23 / scenecut=40 / intra_refresh=0 / rc_lookahead=60 / rc=2pass / mbtree=0 / bitrate=6536 / ratetol=1.0 / qcomp=0.60 / qpmin=0 / qpmax=69 / qpstep=4 / cplxblur=20.0 / qblur=0.5 / vbv_maxrate=62500 / vbv_bufsize=78125 / nal_hrd=none / filler=0 / ip_ratio=1.40 / pb_ratio=1.30 / aq=1:0.80
Default : Yes
Forced : No
Audio
ID : 2
Format : AC-3
Format/Info : Audio Coding 3
Mode extension : CM (complete main)
Format settings, Endianness : Big
Codec ID : A_AC3
Duration : 1h 29mn
Bit rate mode : Constant
Bit rate : 448 Kbps
Channel(s) : 6 channels
Channel positions : Front: L C R, Side: L R, LFE
Sampling rate : 48.0 KHz
Frame rate : 31.250 fps (1536 spf)
Compression mode : Lossy
Stream size : 287 MiB (6%)
Title : Дубляж
Language : Russian
Default : Yes
Forced : No

Скриншоты

[Профиль] [ЛС]

Создавать темы 29-Июл-2016 17:09 (спустя 4 дня)

Топик был перенесен из форума Зарубежные Мультфильмы (WEB-DL 720p, 1080p) в форум Зарубежные Мультфильмы (Blu-ray, BD-Remux, BDRip 1080p, 720p)
Russian Mafia
 
Кто просматривает тему:

Форум Тема Автор Размер
BBC BBC: Армада. Неизвестная история (12 дней, чтобы спасти Англию) / Armada: The Untold Story (12 Days to Save England) [серии 1-3 из 3] (Робин Дешвуд / Robin Dashwood, Тим Дан / Tim Dunn) [2015... skorpionN 5.59 GB
BBC BBC: Армада. Неизвестная история (Армада: 12 дней, чтобы спасти Англию) / Armada: 12 Days to Save England [серии 1-3 из 3] (Робин Дешвуд / Robin Dashwood, Тим Дан / Tim D... skorpionN 2.16 GB
Фильмы 2015 года Арденны / D'Ardennen (Робин Пронт) [2015, драма, криминал, HDRip] AVO Bathory 747 MB
Зарубежные мультсериалы Битлджус / Beetlejuice / 1-4 сезоны / серии: s1e01-20 из 20 / s2e01-11 из 13 / s3e01-11 из 11 / s4e30-65 из 65 (Робин Бадд / Robin Budd) [1989 г., Мультсериал, чёрная комедия, приключения, DVB] ТНТ Russian Mafia 82.72 GB
Зарубежные мультфильмы Бэтмен против Робина / Batman vs. Robin (Джей Олива) [2015, Мультфильм, боевик, приключения] HDRip BOSS 1.37 GB
Путешествия и приключения Даниэль Дефо - Дальнейшие приключения Робинзона Крузо (2015) MP3 Swager 284 MB
Детская литература Дефо Даниэль - Робинзон Крузо (Детское радио) [исполнители неизвестны, 2010 г., 160 kbps, MP3] sergej644 652 MB
Фильмы 2011 года Жанна Пуассон, маркиза де Помпадур / Jeanne Poisson, Marquise de Pompadour (Робин Дэвис / Robin Davis) [2006, Франция, история, DVDRip] DVO (RedDiamond Studio) + Sub Rus (Lisok) + Original Fre TorrentFilm 2.93 GB
Показать сообщения:    

Текущее время: Сегодня 16:20

Часовой пояс: GMT



Вы не можете начинать темы
Вы не можете отвечать на сообщения
Вы не можете редактировать свои сообщения
Вы не можете удалять свои сообщения
Вы не можете голосовать в опросах
Вы не можете прикреплять файлы к сообщениям
Вы не можете скачивать файлы