Робинзон Крузо: Очень обитаемый остров / Robinson Crusoe (2016) HDRip от Generalfilm | iTunes

 
Автор Сообщение

Russian Mafia ®

Пол:

Стаж: 1 год 8 месяцев

Сообщений: 4253



Награды: 10 (Подробнее)

Top Releaser 3 (Количество: 1) Mega Seeder 3 (Количество: 1) Mega Seeder 4 (Количество: 1)
Торрент-статистика

Создавать темы 04-Июн-2016 06:52

[Цитировать]

Информация о фильме
Название: Робинзон Крузо: Очень обитаемый остров
Оригинальное название: Robinson Crusoe
Год выхода: 2016
Жанр: Мультфильм, комедия, приключения
Режиссер: Винсент Кестелут, Бен Стассен
В ролях: Рон Аллен, Джордж Бэббит, Лайла Берзиньш, Илька Бессин, Джои Камен, Джефф Дусетте, Сэнди Фокс.
О фильме:
Все знают историю о Робинзоне Крузо, попавшем на необитаемый остров. Однако, как же можно назвать его необитаемым, если он населен разнообразными веселыми животными и птицами..? Они очень удивились, впервые встретив это странное существо, и даже приняли его за морское чудовище. Попугаю по кличке Вторник и его друзьям — хамелеону, тапиру и другим обитателям острова предстоит поближе познакомиться с незнакомым зверем «человеком» и вместе с ним пережить массу опасных и веселых приключений...

Страна: Франция, Бельгия
Студия: Studio Canal, nWave Pictures, uFilm
Продолжительность: 01:30:27
Перевод: Дублированный [iTunes]
Файл
Качество: HDRip
Видео: XviD, 720x304 (2.35:1), 23.976 fps, 1907 Kbps (0.363 bit/pixel)
Звук: AC-3, 48.0 KHz, 6 ch, 384 Kbps

МедиаИнфо

General
Complete name : Kpuzo.2016.XviD.HDRip.by.GeneralFilm.avi
Format : AVI
Format/Info : Audio Video Interleave
File size : 1.45 GiB
Duration : 1h 30mn
Overall bit rate : 2 300 Kbps
Writing application : VirtualDubMod 1.5.10.3 | www.virtualdub-fr.org || (build 2550/release)
Writing library : VirtualDubMod build 2550/release
Video
ID : 0
Format : MPEG-4 Visual
Format profile : Advanced Simple@L5
Format settings, BVOP : 1
Format settings, QPel : No
Format settings, GMC : No warppoints
Format settings, Matrix : Custom
Codec ID : XVID
Codec ID/Hint : XviD
Duration : 1h 30mn
Bit rate : 1 907 Kbps
Width : 720 pixels
Height : 304 pixels
Display aspect ratio : 2.35:1
Frame rate : 23.976 (23976/1000) fps
Color space : YUV
Chroma subsampling : 4:2:0
Bit depth : 8 bits
Scan type : Progressive
Compression mode : Lossy
Bits/(Pixel*Frame) : 0.363
Stream size : 1.21 GiB (83%)
Writing library : XviD 73
Audio
ID : 1
Format : AC-3
Format/Info : Audio Coding 3
Mode extension : CM (complete main)
Format settings, Endianness : Big
Codec ID : 2000
Duration : 1h 30mn
Bit rate mode : Constant
Bit rate : 384 Kbps
Channel(s) : 6 channels
Channel positions : Front: L C R, Side: L R, LFE
Sampling rate : 48.0 KHz
Frame rate : 31.250 fps (1536 spf)
Compression mode : Lossy
Stream size : 248 MiB (17%)
Alignment : Split accross interleaves
Interleave, duration : 42 ms (1.00 video frame)
Interleave, preload duratio : 500 ms

Скриншоты




[Профиль] [ЛС]
Кто просматривает тему:

Форум Тема Автор Размер
BBC BBC: Армада. Неизвестная история (12 дней, чтобы спасти Англию) / Armada: The Untold Story (12 Days to Save England) [серии 1-3 из 3] (Робин Дешвуд / Robin Dashwood, Тим Дан / Tim Dunn) [2015... skorpionN 5.59 GB
BBC BBC: Армада. Неизвестная история (Армада: 12 дней, чтобы спасти Англию) / Armada: 12 Days to Save England [серии 1-3 из 3] (Робин Дешвуд / Robin Dashwood, Тим Дан / Tim D... skorpionN 2.16 GB
Фильмы 2015 года Арденны / D'Ardennen (Робин Пронт) [2015, драма, криминал, HDRip] AVO Bathory 747 MB
Зарубежные мультсериалы Битлджус / Beetlejuice / 1-4 сезоны / серии: s1e01-20 из 20 / s2e01-11 из 13 / s3e01-11 из 11 / s4e30-65 из 65 (Робин Бадд / Robin Budd) [1989 г., Мультсериал, чёрная комедия, приключения, DVB] ТНТ Russian Mafia 82.72 GB
Зарубежные мультфильмы Бэтмен против Робина / Batman vs. Robin (Джей Олива) [2015, Мультфильм, боевик, приключения] HDRip BOSS 1.37 GB
Путешествия и приключения Даниэль Дефо - Дальнейшие приключения Робинзона Крузо (2015) MP3 Swager 284 MB
Детская литература Дефо Даниэль - Робинзон Крузо (Детское радио) [исполнители неизвестны, 2010 г., 160 kbps, MP3] sergej644 652 MB
Фильмы 2011 года Жанна Пуассон, маркиза де Помпадур / Jeanne Poisson, Marquise de Pompadour (Робин Дэвис / Robin Davis) [2006, Франция, история, DVDRip] DVO (RedDiamond Studio) + Sub Rus (Lisok) + Original Fre TorrentFilm 2.93 GB
Показать сообщения:    

Текущее время: Сегодня 18:56

Часовой пояс: GMT



Вы не можете начинать темы
Вы не можете отвечать на сообщения
Вы не можете редактировать свои сообщения
Вы не можете удалять свои сообщения
Вы не можете голосовать в опросах
Вы не можете прикреплять файлы к сообщениям
Вы не можете скачивать файлы