Робинзон Крузо: Очень обитаемый остров / Robinson Crusoe (2016) ВDRip 1080р | D | iTunes

 
Автор Сообщение

Russian Mafia ®

Пол:

Стаж: 2 года 3 месяца

Сообщений: 4249



Награды: 10 (Подробнее)

Top Releaser 2 (Количество: 1) Mega Seeder 3 (Количество: 1) Mega Seeder 5 (Количество: 1)
Торрент-статистика

Создавать темы 03-Июн-2016 06:13

[Цитировать]

Робинзон Крузо: Очень обитаемый остров / Robinson Crusoe
Страна: Франция Бельгия
Производство: Studio Canal, nWave Pictures, uFilm
Год выпуска: 2016
Жанр: мультфильм, комедия, приключения
Продолжительность: 01:30:27
Режиссеры: Винсент Кестелут, Бен Стассен
В ролях: Рон Аллен, Джордж Бэббит, Лайла Берзиньш, Илька Бессин, Джои Камен, Джефф Дусетте, Сэнди Фокс
Описание: Все знают историю о Робинзоне Крузо, попавшем на необитаемый остров. Однако, как же можно назвать его необитаемым, если он населен разнообразными веселыми животными и птицами..? Они очень удивились, впервые встретив это странное существо, и даже приняли его за морское чудовище. Попугаю по кличке Вторник и его друзьям — хамелеону, тапиру и другим обитателям острова предстоит поближе познакомиться с незнакомым зверем «человеком» и вместе с ним пережить массу опасных и веселых приключений...

Перевод: Профессиональный (полное дублирование) | iTunes
Субтитры: нет-Качество: ВDRip 1080р
Формат: МКV
Видео кодек: AVC
Аудио кодек: АС3 | DTS
Видео: 1920x808 (2.40:1), 23.976 fps, MPEG-4 AVC ~5 621 kbps avg
Аудио №1: 48 kHz, AC3 Dolby Digital, 3/2 (L,C,R,l,r) + LFE ch, ~384 kbps | RUS
Аудио №2: 48 kHz, Digital Theater Systems, 3/2 (L,C,R,l,r) + LFE ch, ~1509 kbps | GER
Дата премьеры (мир): 4 февраля 2016
Дата премьеры (РФ): 14 апреля 2016, «Вольга»

Media Info

General
Unique ID : 229263350556820911127532161225267156526 (0xAC7A83E4116EA3C582F4A85CF545162E)
Format : Matroska
Format version : Version 4 / Version 2
Overall bit rate : 7 667 Kbps
Movie name : MoreFilms
Encoded date : UTC 2016-06-03 03:08:03
Writing application : mkvmerge v8.8.0 ('Wind at my back') 64bit
Writing library : libebml v1.3.3 + libmatroska v1.4.4
DURATION : 00:00:40.918000000
NUMBER_OF_FRAMES : 3836
NUMBER_OF_BYTES : 7718032
_STATISTICS_WRITING_APP : mkvmerge v8.8.0 ('Wind at my back') 64bit
_STATISTICS_WRITING_DATE_UTC : 2016-06-03 03:08:03
Video
ID : 1
Format : AVC
Format/Info : Advanced Video Codec
Format profile : High@L4.1
Format settings, CABAC : Yes
Format settings, ReFrames : 5 frames
Codec ID : V_MPEG4/ISO/AVC
Bit rate : 5 621 Kbps
Width : 1 920 pixels
Height : 808 pixels
Display aspect ratio : 2.40:1
Frame rate mode : Constant
Frame rate : 23.976 fps
Color space : YUV
Chroma subsampling : 4:2:0
Bit depth : 8 bits
Scan type : Progressive
Bits/(Pixel*Frame) : 0.151
Stream size : 27.4 MiB (73%)
Language : English
Default : Yes
Forced : No
DURATION : 00:00:40.916000000
NUMBER_OF_FRAMES : 981
NUMBER_OF_BYTES : 29533590
_STATISTICS_WRITING_APP : mkvmerge v8.8.0 ('Wind at my back') 64bit
_STATISTICS_WRITING_DATE_UTC : 2016-06-03 03:08:03
Audio #1
ID : 2
Format : AC-3
Format/Info : Audio Coding 3
Mode extension : CM (complete main)
Format settings, Endianness : Big
Codec ID : A_AC3
Bit rate mode : Constant
Bit rate : 384 Kbps
Channel(s) : 6 channels
Channel positions : Front: L C R, Side: L R, LFE
Sampling rate : 48.0 KHz
Compression mode : Lossy
Stream size : 1.87 MiB (5%)
Language : Russian
Default : Yes
Forced : No
Audio #2
ID : 3
Format : DTS
Format/Info : Digital Theater Systems
Mode : 16
Format settings, Endianness : Big
Codec ID : A_DTS
Bit rate mode : Constant
Bit rate : 1 509 Kbps
Channel(s) : 6 channels
Channel positions : Front: L C R, Side: L R, LFE
Sampling rate : 48.0 KHz
Bit depth : 24 bits
Compression mode : Lossy
Stream size : 7.36 MiB (20%)
Language : German
Default : No
Forced : No

Скриншоты

[Профиль] [ЛС]

Создавать темы 29-Июл-2016 17:09 (спустя 1 месяц 26 дней)

Топик был перенесен из форума Зарубежные Мультфильмы (WEB-DL 720p, 1080p) в форум Зарубежные Мультфильмы (Blu-ray, BD-Remux, BDRip 1080p, 720p)
Russian Mafia
 
Показать сообщения:    

Текущее время: Сегодня 09:09

Часовой пояс: GMT



Вы не можете начинать темы
Вы не можете отвечать на сообщения
Вы не можете редактировать свои сообщения
Вы не можете удалять свои сообщения
Вы не можете голосовать в опросах
Вы не можете прикреплять файлы к сообщениям
Вы не можете скачивать файлы