Ришелье. Пурпур и кровь / Мантия и кровь / Richelieu, la pourpre et le sang (Анри Эльман / Henri Helman) [2014, Франция, историческая драма, DVB] Original (Fre) + Sub (rus)

 
Автор Сообщение

TorrentFilm ®

Пол:

Стаж: 2 года

Сообщений: 7741



Награды: Нет

Торрент-статистика

Создавать темы 09-Янв-2015 00:00

[Цитировать]

Ришелье. Пурпур и кровь
Richelieu, la pourpre et le sang- Страна: Франция
Жанр: историческая драма
Год выпуска: 2014
Продолжительность: 01:39:49
Перевод: Субтитры (перевод И.Безлюдной, Éclair Group)
Cубтитры: русские
Оригинальная аудиодорожка: французский
Режиссер: Анри Эльман / Henri HelmanВ ролях: Жак Перрен / Jacques Perrin (Richelieu), Пьер Буланже / Pierre Boulanger (Marquis de Cinq Mars), Стефан Герен-Тилье / Stéphan Guérin-Tillié (Louis XIII), Элен Сёзаре / Hélène Seuzaret (Marie de Gonzague), Сесиль Буа / Cécile Bois (Anne d'Autriche), Гаэль Бона / Gaëlle Bona (Mlle de Chemerault), Мишель Карлиз / Michel Carliez (Tréville), Матюрен Вольц / Mathurin Voltz (François de Thou)
Описание: Самый влиятельный человек Франции кардинал Ришелье оказывает протекцию маркизу де Сен-Мару. Молодой маркиз, наделенный живым умом и приятной внешностью, быстро становится любимцем Людовика XIII. Но вместо того, чтобы шпионить для Ришелье, Сен-Мар становится в ряды заговорщиков…
Доп. информация: TV5MONDE DVB-S. В отличие от имеющихся на трекере релизов здесь перевод в виде русских субтитров.

Качество видео: DVB
Формат видео: MKV
Видео: MPEG Video 2, 704x576@1024x576 (16:9), 25 fps, ~2946 kbps avg, 0.291 bit/pixel
Аудио: Французский (MPEG Audio 2, 2 ch, 48 kHz, ~192.00 kbps avg)
Формат субтитров: hardsub (неотключаемые)

MediaInfo

ОбщееУникальный идентификатор : 251967436305334238181849321059151221887 (0xBD8F29BE3D9E5C04B90B50FEA76B947F)Полное имя : E:\My Torrents 2\[apreder]Richelieu_la_pourpre_et_le_sang(2014)DVB.mkvФормат : MatroskaВерсия формата : Version 2Размер файла : 2,23 ГбайтПродолжительность : 1 ч. 39 м.Режим общего битрейта : ПеременныйОбщий поток : 3201 Кбит/секДата кодирования : UTC 2015-01-08 14:46:41Программа кодирования : mkvmerge v7.5.0 ('Glass Culture') 64bit built on Jan 4 2015 16:48:44Библиотека кодирования : libebml v1.3.1 + libmatroska v1.4.2
ВидеоИдентификатор : 1Формат : MPEG VideoВерсия формата : Version 2Профиль формата : Main@MainПараметр BVOP формата : ДаПараметр матрицы формата : ВыборочнаяПараметр GOP формата : M=3, N=15Format_Settings_PictureStructure : FrameИдентификатор кодека : V_MPEG2Идентификатор кодека/Информация : MPEG 1 or 2 VideoПродолжительность : 1 ч. 39 м.Вид битрейта : ПеременныйБитрейт : 2946 Кбит/секШирина : 704 пикселяВысота : 576 пикселейСоотношение сторон : 16:9Режим частоты кадров : ПостоянныйЧастота кадров : 25,000 кадров/секСтандарт вещания : PALЦветовое пространство : YUVСубдискретизация насыщенности : 4:2:0Битовая глубина : 8 битТип развёртки : ЧересстрочнаяПорядок развёртки : Верхнее поле первоеМетод сжатия : С потерямиБит/(Пиксели*Кадры) : 0.291Временной код первого кадра : 00:00:00:00Оригинал временного кода : Group of pictures headerРазмер потока : 2,05 Гбайт (92%)Default : ДаForced : НетGop_OpenClosed_FirstFrame : Closed
АудиоИдентификатор : 2Формат : MPEG AudioВерсия формата : Version 1Профиль формата : Layer 2Идентификатор кодека : A_MPEG/L2Идентификатор кодека/Подсказка : MP2Продолжительность : 1 ч. 39 м.Вид битрейта : ПостоянныйБитрейт : 192 Кбит/секКаналы : 2 каналаЧастота : 48,0 КГцМетод сжатия : С потерямиРазмер потока : 137 Мбайт (6%)Язык : FrenchDefault : ДаForced : Нет

Скриншот c названием фильма

Скриншоты


Резервные скриншоты


-[2'038]
[Профиль] [ЛС]
Кто просматривает тему:

Форум Тема Автор Размер
Discovery Discovery. Знакомство с пришельцами / Aliens: Are We Alone? [2013, Документальный, SATRip] reversefile 445 MB
Альтернативная история и наука History: Древние пришельцы (сезон 6) / Ancient Aliens [2014, Познавательный, History Channel HD, HDTV 1080i] TorrentFilm 9.33 GB
Программы [GPS] I’m Ok Mama - Я пришел! v1.0.6 [Android 2.3, RUS] TorrentFilm 5 MB
Фильмы 2006-2008 года Викинги / Викинги против пришельцев / Outlander (Ховард МакКейн / Howard McCain) [2008, Германия, США, фантастика, боевик, приключения, BDRip] MVO (Киномания) + AVO (Визгунов) TorrentFilm 1.72 GB
Фантастика, фэнтези Владислав Кулигин | Пришелец из рая (2016) [FB2] достали все 2 MB
История, биографии, религия и искусство Георгий Гречко - Космонавт № 34. От лучины до пришельцев (2016) MP3 Swager 544 MB
Зарубежные Древние пришельцы / Ancient Aliens [06х01-19 из 22] (2013-2014) SATRip Белочка 6.91 GB
Зарубежные сериалы Древние пришельцы / Ancient Aliens [s07x01] (2014) HDTVRip 720p Белочка 1.18 GB
Показать сообщения:    

Текущее время: Сегодня 10:50

Часовой пояс: GMT



Вы не можете начинать темы
Вы не можете отвечать на сообщения
Вы не можете редактировать свои сообщения
Вы не можете удалять свои сообщения
Вы не можете голосовать в опросах
Вы не можете прикреплять файлы к сообщениям
Вы не можете скачивать файлы