Риф в 3Д / The Reef 2: High Tide 3D (Марк А.З. Диппе, Тадонг Пак / Mark A.Z. Dippe, Taedong Park) [2012, Мультфильм, Мюзикл, Семейный, BDrip-AVC] Half OverUnder / Вертикальная анаморфная стереопара

 
Автор Сообщение

BOSS ®

Пол:

Стаж: 2 года 1 месяц

Сообщений: 3735

Откуда: ODESSA



Награды: 20 (Подробнее)

Mega Seeder 2 (Количество: 1) Top Keeper 1 (Количество: 1) Top Releaser 3 (Количество: 1)
Торрент-статистика

Создавать темы 07-Окт-2015 20:02

[Цитировать]

Pиф
Тhе Rееf 2: High Tide
- Год выпуска: 2012
Страна: США, Южная Корея (SC films International, WonderWorld Studios)
Жанр: Мультфильм, Мюзикл, Семейный
Продолжительность: 01:20:19
Перевод: Профессиональный дублированный
Режиссеры: Mapк А.З. Диппe, Taдoнг Пак / Маrk A.Z. Diррé, Таеdоng Раrk-Роли озвучивали (дублировали):
Pi - Дрейк Белл (Никита Пресняков)
Dylan - Энди Дик
Pearl - Фрэн Дрешер
Junior - Фрэнки Джонас
Ronny - Джейми Кеннеди
Troy - Донал Лог (Антон Богданов)
Cordelia - Бизи Филиппс (Дина Гарипова)
Nerissa - Роб Шнайдер
Jack - Стефен Стэнтон
Bronson - Мэттью Уиллиг
... а также в дублировании участвовал Владимир Рыбальченко
-Описание: Пай живет на прекрасном коралловом Рифе, а по соседству обитают сотни злобных акул. Пай — единственный на Рифе, кто уверен, рано или поздно акулы атакуют и нужно быть готовым за себя постоять. Жители Рифа всегда мирно соседствовали с акулами и не планируют ни с кем воевать. Пай пытается организовать занятия по самообороне, но на них никто не приходит, и ему приходится изучать боевые искусства одному, под руководством мудрого черепаха Нерисса.
Однажды в городе появляется веселый Ронни, который увлекает местных жителей в подготовку к водному празднику в жанре представлений Cirque De Soleil. Жители Рифа очарованы Ронни! Но никто не догадывается, что Ронни прислали акулы: его задача усыпить бдительность жителей и захватить Риф…-Премьера: 10 января 2013 (25 апреля 2013)
Релиз на DVD и Blu-Ray: 27 июня 2013

. .
-Качество: BDRip (by Ash61)
Контейнер: MKV
Формат 3D: Half OverUnder / Вертикальная анаморфная стереопара
Порядок ракурсов: левый ракурс первый
Видео кодек: x264
Аудио кодек: AC3-Видео: AVC / 23,976 fps / 1920х1080p / 9 666 Kbps
Аудио:
#1 - Русский / AC3 / 48 KHz / 5.1 ch / 384 Kbps (Дубляж - Лицензия)
#2 - Английский / AC3 / 48 KHz / 5.1 ch / 640 Kbps
Субтитры: Отсутствуют

MediaInfo

General
Unique ID : 184966461250274674080011338887271039982 (0x8B273EA0EB300FE3B0D9BFA2FE7043EE)
Complete name : G:\Downloads\TheReef2.HighTide(3D-halfOU)2012(Ash61).mkv
Format : Matroska
Format version : Version 2
File size : 6.12 GiB
Duration : 1h 20mn
Overall bit rate : 10.9 Mbps
Movie name : Риф / The Reef 2: High Tide (3D) 2012
Encoded date : UTC 2013-06-14 14:57:31
Writing application : mkvmerge v5.8.0 ('No Sleep / Pillow') built on Sep 2 2012 15:37:04
Writing library : libebml v1.2.3 + libmatroska v1.3.0
Video
ID : 1
Format : AVC
Format/Info : Advanced Video Codec
Format profile : High@L4.1
Format settings, CABAC : Yes
Format settings, ReFrames : 4 frames
Codec ID : V_MPEG4/ISO/AVC
Duration : 1h 20mn
Bit rate : 9 666 Kbps
Width : 1 920 pixels
Height : 1 080 pixels
Display aspect ratio : 16:9
Frame rate mode : Constant
Frame rate : 23.976 fps
Color space : YUV
Chroma subsampling : 4:2:0
Bit depth : 8 bits
Scan type : Progressive
Bits/(Pixel*Frame) : 0.194
Stream size : 5.42 GiB (89%)
Title : BDRip by Ash61
Writing library : x264 core 129 r2245 bc13772
Encoding settings : cabac=1 / ref=4 / deblock=1:-3:-3 / analyse=0x3:0x113 / me=umh / subme=9 / psy=1 / psy_rd=1.00:0.15 / mixed_ref=1 / me_range=32 / chroma_me=1 / trellis=2 / 8x8dct=1 / cqm=0 / deadzone=21,11 / fast_pskip=1 / chroma_qp_offset=-3 / threads=12 / lookahead_threads=2 / sliced_threads=0 / nr=0 / decimate=1 / interlaced=0 / bluray_compat=0 / constrained_intra=0 / bframes=7 / b_pyramid=2 / b_adapt=2 / b_bias=0 / direct=3 / weightb=1 / open_gop=0 / weightp=2 / keyint=250 / keyint_min=23 / scenecut=40 / intra_refresh=0 / rc_lookahead=60 / rc=crf / mbtree=1 / crf=17.0 / qcomp=0.70 / qpmin=0 / qpmax=69 / qpstep=4 / vbv_maxrate=40000 / vbv_bufsize=30000 / crf_max=0.0 / nal_hrd=none / frame-packing=4 / ip_ratio=1.40 / aq=1:0.70
Language : English
Default : Yes
Forced : No
Audio #1
ID : 2
Format : AC-3
Format/Info : Audio Coding 3
Mode extension : CM (complete main)
Format settings, Endianness : Big
Codec ID : A_AC3
Duration : 1h 20mn
Bit rate mode : Constant
Bit rate : 384 Kbps
Channel(s) : 6 channels
Channel positions : Front: L C R, Side: L R, LFE
Sampling rate : 48.0 KHz
Bit depth : 16 bits
Compression mode : Lossy
Stream size : 221 MiB (4%)
Title : Дубляж - Лицензия
Language : Russian
Default : Yes
Forced : No
Audio #2
ID : 3
Format : AC-3
Format/Info : Audio Coding 3
Mode extension : CM (complete main)
Format settings, Endianness : Big
Codec ID : A_AC3
Duration : 1h 20mn
Bit rate mode : Constant
Bit rate : 640 Kbps
Channel(s) : 6 channels
Channel positions : Front: L C R, Side: L R, LFE
Sampling rate : 48.0 KHz
Bit depth : 16 bits
Compression mode : Lossy
Stream size : 368 MiB (6%)
Title : Original
Language : English
Default : No
Forced : No
Menu
00:00:00.000 : :1
00:09:15.305 : :2
00:19:53.567 : :3
00:31:11.495 : :4
00:42:11.654 : :5
00:52:03.203 : :6
01:02:38.755 : :7
01:14:53.322 : :8

Для оценки 3д - Анимированные скрины












14.06.2013 - Релиз обновлён - русская одноголоска заменена на лицензионный дубляж.
Желающие, скачайте заново торрент-файл.
[Профиль] [ЛС]
Кто просматривает тему:

Показать сообщения:    

Текущее время: Сегодня 10:06

Часовой пояс: GMT



Вы не можете начинать темы
Вы не можете отвечать на сообщения
Вы не можете редактировать свои сообщения
Вы не можете удалять свои сообщения
Вы не можете голосовать в опросах
Вы не можете прикреплять файлы к сообщениям
Вы не можете скачивать файлы