Рисунок на песке (Анатолий Каранович) [1969 г., мультфильм, DVB]

 
Автор Сообщение

TorrentFilm ®

Пол:

Стаж: 2 года

Сообщений: 7741



Награды: Нет

Торрент-статистика

Создавать темы 14-Май-2015 00:03

[Цитировать]

Рисунок на песке
Жанр: мультфильм
Год выпуска: 1969
Продолжительность: 00:08:36
Режиссёр: Анатолий Каранович
Описание: мультфильм о том, как гуляя по пляжу мальчик сделал рисунок на песке. Настала ночь. В свете луны ожили нарисованные человечки. Они пытаются спастись от набегающих волн...
Доп. информация:
Релиз группы:
Трансляция спутникового канала:

Качество видео: DVB
Формат видео: MPEG-PS
Видео: MPEG2 Video, 704x576@768x576 (4:3), анаморф, 25 fps, 3500 kbps
Аудио: MPEG Audio, 2 сh, 48 kHz, 192 Kbps

MediaInfo

D:\Рисунок на песке. (1969)_DVB by SLuMeP.mpg
General
Complete name : D:\Рисунок на песке. (1969)_DVB by SLuMeP.mpg
Format : MPEG-PS
File size : 233 MiB
Duration : 8mn 36s
Overall bit rate mode : Variable
Overall bit rate : 3 786 Kbps
Video #224
ID : 224 (0xE0)
Format : MPEG Video
Format version : Version 2
Format profile : Main@Main
Format settings, BVOP : Yes
Format settings, Matrix : Custom
Format settings, GOP : Variable
Duration : 8mn 36s
Bit rate mode : Variable
Bit rate : 3 518 Kbps
Maximum bit rate : 5 000 Kbps
Width : 704 pixels
Height : 576 pixels
Display aspect ratio : 4:3
Frame rate : 25.000 fps
Standard : PAL
Color space : YUV
Chroma subsampling : 4:2:0
Bit depth : 8 bits
Scan type : Interlaced
Scan order : Top Field First
Compression mode : Lossy
Bits/(Pixel*Frame) : 0.347
Time code of first frame : 00:00:00:00
Time code source : Group of pictures header
Stream size : 217 MiB (93%)
Audio #192
ID : 192 (0xC0)
Format : MPEG Audio
Format version : Version 1
Format profile : Layer 2
Duration : 8mn 36s
Bit rate mode : Constant
Bit rate : 192 Kbps
Channel(s) : 2 channels
Sampling rate : 48.0 KHz
Compression mode : Lossy
Stream size : 11.8 MiB (5%)

Скриншоты


[Профиль] [ЛС]
Кто просматривает тему:

Форум Тема Автор Размер
Разная литература Майкл Хаскью - Танки. Уникальные рисунки и чертежи [2014 г.,PDF] Garik014 386 MB
Показать сообщения:    

Текущее время: Сегодня 12:41

Часовой пояс: GMT



Вы не можете начинать темы
Вы не можете отвечать на сообщения
Вы не можете редактировать свои сообщения
Вы не можете удалять свои сообщения
Вы не можете голосовать в опросах
Вы не можете прикреплять файлы к сообщениям
Вы не можете скачивать файлы