Рио 2 / Riо 2 (2014) BDRip [720p] [Hand Made 60fps]

 
Автор Сообщение

sergej644 ®

Пол:

Стаж: 4 года 11 месяцев

Сообщений: 6041

Откуда: Soviet Union



Награды: Нет

Торрент-статистика

Создавать темы 19-Июл-2014 21:34

[Цитировать]

-Рио 2 / Rio 2 (2014) BDRip [720p] [Hand Made 60fps]-
Год выпуска: 2014
Жанр: Комедия, Приключения
Производство: США / TWENTIETH CENTURY FOX
Описание:
Голубчик, Жемчужинка и их трое детей живут счастливой жизнью в волшебном городе Рио-де-Жанейро. Когда Жемчужинка решает, что их детям нужно научиться жить как настоящим птицам, она настаивает на авантюрной поездке в дебри реки Амазонки. Там, пытаясь вписаться в новое окружение, Голубчик начинает беспокоиться, что может потерять Жемчужинку и детей, идущих на зов дикой природы.
Режиссер: Карлос Салдана / Carlos Saldanha
Персонажи: Энн Хэтэуэй, Лесли Манн, Джейми Фокс, Джесси Айзенберг, Родриго Санторо, Энди Гарсиа, Трэйси Морган, Уилл Ай Эм, Джемейн Клемент, Кристин Ченоуэт

Продолжительность: 01:41:11
Перевод: Дублированный
Язык субтитров: Русские (Полные), Английские (Полные)
Вид субтитров: Вшитые (Отключаемые)
Качество видео: BDRip 720p (Исходник Blu-ray Disc Remux)
Размер кадра: 1280x536
Видеокодек: MPEG-4 AVC/H.264
Битрейт видео: ~4261 Кбит/сек
Частота кадров: 59.940 кадр/сек
Соотношение сторон: 2.40:1
Фактор качества: 0.104 bit/pix
Аудио: AC-3, 448 Кбит/сек, 6 канала(ов), 48,0 КГц - Дублированный / Русский
Аудио 2: AC-3, 448 Кбит/сек, 6 канала(ов), 48,0 КГц - Оригинал / Английский
Аудио 3: АС-3, 448 Кбит/сек, 6 канала(ов), 48,0 КГц - Дублированный / Украинский (отдельный файл)-Прежде чем скачивать фильм полностью, скачайте "сэмпл", и проверьте будет ли воспроизводится видео на вашем устройстве!
Скриншоты:

MediaInfo

Format : Matroska
Format version : Version 2
File size : 3.72 GiB
Duration : 1h 41mn
Overall bit rate : 5 260 Kbps
Movie name : Рио 2.(2014).BDRip.720p.[60fps]
Encoded date : UTC 2014-07-04 09:21:08
Writing application : mkvmerge v5.8.0 ('No Sleep / Pillow') built on Sep 2 2012 15:37:04
Writing library : libebml v1.2.3 + libmatroska v1.3.0
Video
ID : 1
Format : AVC
Format/Info : Advanced Video Codec
Format profile : [url=mailto:High@L4.1]High@L4.1[/url]
Format settings, CABAC : Yes
Format settings, ReFrames : 9 frames
Codec ID : V_MPEG4/ISO/AVC
Duration : 1h 41mn
Bit rate : 4 260 Kbps
Width : 1 280 pixels
Height : 536 pixels
Display aspect ratio : 2.40:1
Frame rate mode : Constant
Frame rate : 59.880 fps
Original frame rate : 59.940 fps
Color space : YUV
Chroma subsampling : 4:2:0
Bit depth : 8 bits
Scan type : Progressive
Bits/(Pixel*Frame) : 0.104
Stream size : 3.01 GiB (81%)
Title : Рио 2.(2014).BDRip.720p.[envy].[60fps]
Writing library : x264 core 130 r2273 b3065e6
Encoding settings : cabac=1 / ref=9 / deblock=1:-1:-1 / analyse=0x3:0x133 / me=umh / subme=10 / psy=1 / psy_rd=1.00:0.10 / mixed_ref=1 / me_range=32 / chroma_me=1 / trellis=2 / 8x8dct=1 / cqm=0 / deadzone=21,11 / fast_pskip=0 / chroma_qp_offset=-3 / threads=12 / lookahead_threads=1 / sliced_threads=0 / nr=0 / decimate=1 / interlaced=0 / bluray_compat=0 / constrained_intra=0 / bframes=6 / b_pyramid=2 / b_adapt=2 / b_bias=0 / direct=1 / weightb=1 / open_gop=0 / weightp=2 / keyint=250 / keyint_min=25 / scenecut=40 / intra_refresh=0 / rc=crf / mbtree=0 / crf=19.0 / qcomp=0.60 / qpmin=0 / qpmax=69 / qpstep=4 / ip_ratio=1.40 / pb_ratio=1.30 / aq=2:1.00
Language : English
Default : Yes
Forced : No
Audio #1
ID : 2
Format : AC-3
Format/Info : Audio Coding 3
Mode extension : CM (complete main)
Format settings, Endianness : Big
Codec ID : A_AC3
Duration : 1h 41mn
Bit rate mode : Constant
Bit rate : 448 Kbps
Channel count : 6 channels
Channel positions : Front: L C R, Side: L R, LFE
Sampling rate : 48.0 KHz
Bit depth : 16 bits
Compression mode : Lossy
Stream size : 324 MiB (9%)
Title : Dub
Language : Russian
Default : Yes
Forced : Yes
Audio #2
ID : 3
Format : AC-3
Format/Info : Audio Coding 3
Mode extension : CM (complete main)
Format settings, Endianness : Big
Codec ID : A_AC3
Duration : 1h 41mn
Bit rate mode : Constant
Bit rate : 448 Kbps
Channel count : 6 channels
Channel positions : Front: L C R, Side: L R, LFE
Sampling rate : 48.0 KHz
Bit depth : 16 bits
Compression mode : Lossy
Stream size : 324 MiB (9%)
Title : Eng
Language : English
Default : No
Forced : No
Text #1
ID : 4
Format : UTF-8
Codec ID : S_TEXT/UTF8
Codec ID/Info : UTF-8 Plain Text
Title : full
Language : Russian
Default : No
Forced : No
Text #2
ID : 5
Format : UTF-8
Codec ID : S_TEXT/UTF8
Codec ID/Info : UTF-8 Plain Text
Title : full
Language : English
Default : No
Forced : No
Menu
00:00:00.000 : :Chapter 01
00:03:10.815 : :Chapter 03
00:05:14.313 : :Chapter 05
00:08:49.362 : :Chapter 07
00:13:02.239 : :Chapter 09
00:17:36.305 : :Chapter 11
00:19:19.408 : :Chapter 13
00:22:30.348 : :Chapter 15
00:26:48.690 : :Chapter 17
00:29:00.155 : :Chapter 19
00:30:59.691 : :Chapter 21
00:33:46.566 : :Chapter 23
00:36:34.191 : :Chapter 25
00:39:20.232 : :Chapter 27
00:41:32.656 : :Chapter 29
00:45:05.119 : :Chapter 31
00:47:23.090 : :Chapter 33
00:49:58.161 : :Chapter 35
00:52:05.455 : :Chapter 37
00:55:38.918 : :Chapter 39
00:58:10.904 : :Chapter 41
01:02:11.394 : :Chapter 43
01:04:38.082 : :Chapter 45
01:07:03.936 : :Chapter 47
01:09:18.195 : :Chapter 49
01:10:21.342 : :Chapter 51
01:15:17.763 : :Chapter 53
01:17:00.157 : :Chapter 55
01:21:41.855 : :Chapter 57
01:25:24.619 : :Chapter 59
01:29:42.710 : :Chapter 61
01:32:27.959 : :Chapter 63
01:41:10.981 : :Chapter 64

Важно:

Прежде чем скачивать фильм полностью, скачайте "сэмпл", и проверьте будет ли воспроизводится видео на вашем устройстве!
Q: Присутствуют ли артефакты на изображении?
A: Да, есть, и будут, какие настройки кодека не вписывай они будут постоянно! хоть они и обработаны фильтром "Sharp", но они выглядят вполне смотрибельно.
+ > Артефактов стало меньше! Переписал скрипт кодирования.
Q: У меня не запускается видео на компьютере.
A: Обновите кодеки. (попробуйте другие видео проигрыватели)
Q: Что нужно для воспроизведения данного видео.
A: Что рекомендуется для воспроизведения:
Процессор: рекомендую 4х ядерный
Видео карта: минимум 512Мб. И желательно включить обработку изображения с помощью видео карты. (Деинтерлейсинг, подавление блочности и т.д.)
ОЗУ: 2Гб
Проигрыватели.
MPC-HC (Media Player Classic - Home Cinema)
The KMPlayer (Korean Multimedia Player) (оптимальный вариант)
Mirillis Splash PRO (Если что то проигрыватель сам может преобразовывать видео вплоть до частоты кадров монитора. Или тех же 60fps.)
-
[Профиль] [ЛС]
Кто просматривает тему:

Показать сообщения:    

Текущее время: Сегодня 01:10

Часовой пояс: GMT



Вы не можете начинать темы
Вы не можете отвечать на сообщения
Вы не можете редактировать свои сообщения
Вы не можете удалять свои сообщения
Вы не можете голосовать в опросах
Вы не можете прикреплять файлы к сообщениям
Вы не можете скачивать файлы