Рио, я люблю тебя / Rio, Eu Te Amo (2014) WEB-DLRip [Line]

 
Автор Сообщение

sergej644 ®

Пол:

Стаж: 4 года 11 месяцев

Сообщений: 6046

Откуда: Soviet Union



Награды: Нет

Торрент-статистика

Создавать темы 05-Дек-2014 17:34

[Цитировать]

-Рио, я люблю тебя / Rio, Eu Te Amo (2014) WEB-DLRip- Год выпуска: 2014
Производство: Бразилия, США, Americas Film Conservancy, Bossa Nova Films, Conspiração Filmes, Empyrean Pictures, Riofilme
Жанр: Фэнтези, Драма, Мелодрама, Комедия
Режиссер: Висенте Аморим, Гильермо Арриага, Стефан Эллиотт
Продюсер: Леонардо М. Баррош, Педро Б. Де Олланда, Денис Гомес
Актеры: Фернанда Монтенегро, Эдуардо Стерблитч, Режина Казе, Степан Нерцессян, Угу Карвана, Сандро Роча, Эмили Мортимер, Бэзил Хоффман, Венсан Кассель, Марсиу Гарсия, Райан Квантен, Ванесса Паради, Джон Туртурро
Описание фильма:
Фильм рассказывает об одном из самых удивительных городов Южной Америки — Рио-де-Жанейро. Режиссеры из разных стран сняли десять коротких историй, которые рассказывают о любви. Каждый эпизод посвящен одному из районов города, которые обладают своими неподражаемыми колоритами.
Перевод: Дублированный (Чистый звук)
Субтитры: Отсутствуют

Возраст: 16+
Дата мировой премьеры: 29 августа 2014
Дата российской премьеры: 13 ноября 2014, «Top Film Distribution»
Продолжительность: 01:44:36
Качество видео: WEB-DLRip
Видеокодек: XviD
Битрейт видео: 1797 kb/s
Размер кадра: 720x400
Аудиокодек: AC3 2.0
Битрейт аудио: 192 kb/s

MI

Общее
Полное имя                               : D:\Раздачи\Рио.я.люблю.тебя.2014.WEB-DLRip.NNM-CLUB.avi
Формат                                   : AVI
Формат/Информация                        : Audio Video Interleave
Размер файла                             : 1,46 Гбайт
Продолжительность                        : 1 ч. 44 м.
Общий поток                              : 1999 Кбит/сек
Программа кодирования                    : VirtualDubMod 1.5.10.3 |  (build 2550/release)
Библиотека кодирования                   : VirtualDubMod build 2550/release
Видео
Идентификатор                            : 0
Формат                                   : MPEG-4 Visual
Профиль формата                          : Advanced Simple@L5
Параметр BVOP формата                    : 2
Параметр QPel формата                    : Нет
Параметр GMC формата                     : Без точки перехода
Параметр матрицы формата                 : Default (MPEG)
Идентификатор кодека                     : XVID
Идентификатор кодека/Подсказка           : XviD
Продолжительность                        : 1 ч. 44 м.
Битрейт                                  : 1797 Кбит/сек
Ширина                                   : 720 пикселей
Высота                                   : 400 пикселей
Соотношение сторон                       : 16:9
Частота кадров                           : 25,000 кадров/сек
Цветовое пространство                    : YUV
Субдискретизация насыщенности            : 4:2:0
Битовая глубина                          : 8 бит
Тип развёртки                            : Прогрессивная
Метод сжатия                             : С потерями
Бит/(Пиксели*Кадры)                      : 0.250
Размер потока                            : 1,31 Гбайт (90%)
Библиотека кодирования                   : XviD 1.2.1 (UTC 2008-12-04)
Аудио
Идентификатор                            : 1
Формат                                   : AC-3
Формат/Информация                        : Audio Coding 3
Расширение режима                        : CM (complete main)
Параметр Endianness формата              : Big
Идентификатор кодека                     : 2000
Продолжительность                        : 1 ч. 44 м.
Вид битрейта                             : Постоянный
Битрейт                                  : 192 Кбит/сек
Каналы                                   : 2 канала
Расположение каналов                     : Front: L R
Частота                                  : 44,1 КГц
Битовая глубина                          : 16 бит
Метод сжатия                             : С потерями
Размер потока                            : 144 Мбайт (10%)
Выравнивание                             : Разделение по промежуткам
Продолжительность промежутка             : 40  мс. (1,00 видеокадр)
Время предзагрузки промежутка            : 500  мс.
Скриншоты: Время раздачи: 24/7,
до 5 скачавших.
[Профиль] [ЛС]
Показать сообщения:    

Текущее время: Сегодня 12:08

Часовой пояс: GMT



Вы не можете начинать темы
Вы не можете отвечать на сообщения
Вы не можете редактировать свои сообщения
Вы не можете удалять свои сообщения
Вы не можете голосовать в опросах
Вы не можете прикреплять файлы к сообщениям
Вы не можете скачивать файлы