Рико, Оскар и дело о разбитом сердце / Rico, Oskar und das Herzgebreche (2015) HDRip | Sub

 
Автор Сообщение

BOSS ®

Пол:

Стаж: 2 года 11 месяцев

Сообщений: 7144

Откуда: ODESSA



Награды: 20 (Подробнее)

Top Releaser 4 (Количество: 1) Top Keeper 2 (Количество: 1) Mega Releaser 2 (Количество: 1)
Торрент-статистика

Создавать темы 28-Май-2017 12:14

[Цитировать]

Информация о фильме
Название: Рико, Оскар и дело о разбитом сердце
Оригинальное название: Rico, Oskar und das Herzgebreche
Год выхода: 2015
Жанр: комедия, приключения, семейный
Режиссер: Вольфганг Гроос
В ролях: Антон Петцольд, Юрий Уинклер, Каролина Херфурт, Хенри Хюбхен, Мориц Бляйбтрой, Катарина Тальбах, Рональд Церфельд, Милан Пешель, Урсела Монн, Гения Рикова
О фильме:
Рико и его друг Оскар теперь знаменитые детективы своего города. И все потому, что удалось вычислить и поймать знаменитого похитителя детей "Мистера 2000". Но это уже в прошлом. Тем более и их жизнь стала понемногу меняться. Так мама Рико выходит замуж, а значит, в его семье появился отец. И Оскар решил заменить шлем на солнцезащитные очки. Однако все эти изменения не остудили в наших героях интерес ко всему подозрительному. Теперь у них появился интерес к заведению "Бинго"…

Производство: Германия / Fox International Productions, Lieblingsfilm
Продолжительность: 01:34:57
Перевод: русские субтитры от djleninn
Файл
Качество: HDRip
Формат: AVI
Видео: XviD, 720x304 (2.35:1), 23.976 fps, 1562 kbps, 0.298 bit/pixel
Аудио: немецкий, AC3 5.1, 48 kHz, 448 kbps
Субтитры: русские, английские, немецкие внешние, SRT

MediaInfo

Формат : AVI
Формат/Информация : Audio Video Interleave
Размер файла : 1,34 Гбайт
Продолжительность : 1 ч. 34 м.
Общий поток : 2017 Кбит/сек
Видео
Идентификатор : 0
Формат : MPEG-4 Visual
Профиль формата : Advanced Simple@L5
Параметр BVOP формата : 2
Параметр QPel формата : Нет
Параметр GMC формата : Без точки перехода
Параметр матрицы формата : Default (MPEG)
Идентификатор кодека : XVID
Идентификатор кодека/Подсказка : XviD
Продолжительность : 1 ч. 34 м.
Битрейт : 1562 Кбит/сек
Ширина : 720 пикселей
Высота : 304 пикселя
Соотношение сторон : 2,35:1
Частота кадров : 23,976 кадра/сек
Цветовое пространство : YUV
Субдискретизация насыщенности : 4:2:0
Битовая глубина : 8 бит
Тип развёртки : Прогрессивная
Метод сжатия : С потерями
Бит/(Пиксели*Кадры) : 0.298
Размер потока : 1,04 Гбайт (77%)
Библиотека кодирования : XviD 67
Аудио
Идентификатор : 1
Формат : AC-3
Формат/Информация : Audio Coding 3
Расширение режима : CM (complete main)
Параметр Endianness формата : Big
Идентификатор кодека : 2000
Продолжительность : 1 ч. 34 м.
Вид битрейта : Постоянный
Битрейт : 448 Кбит/сек
Каналы : 6 каналов
Расположение каналов : Front: L C R, Side: L R, LFE
Частота : 48,0 КГц
Метод сжатия : С потерями
Размер потока : 304 Мбайт (22%)
Выравнивание : Соединение по промежуткам
Продолжительность промежутка : 64 мс. (1,53 видеокадра)
Время предзагрузки промежутка : 192 мс.
Заголовок : riosudherz - [0] German_audio
Релиз от:
[Профиль] [ЛС]
Кто просматривает тему:

Форум Тема Автор Размер
Фильмы 2014 года Кровавая месть / In the Blood (Джон Стокуэлл / John Stockwell) [2014, Великобритания, Пуэрто Рико, триллер, боевик, криминал, BDRip-AVC] Dub + Original (eng) + Sub (rus, eng) reversefile 1.45 GB
Фильмы 2014 года Кровавая месть / In the Blood (Джон Стокуэлл / John Stockwell) [2014, Великобритания, Пуэрто Рико, триллер, боевик, криминал, BDRip-AVC] Dub + Sub (rus, eng) reversefile 747 MB
Фильмы 2014 года Кровавая месть / In the Blood (Джон Стокуэлл / John Stockwell) [2014, Великобритания, Пуэрто Рико, триллер, боевик, криминал, BDRip] Dub reversefile 1.41 GB
Фильмы 2014 года Кровавая месть / In the Blood (Джон Стокуэлл / John Stockwell) [2014, Великобритания, Пуэрто Рико, триллер, боевик, криминал, BDRip] Dub + Original (eng) + Sub (rus, eng) reversefile 2.14 GB
Фильмы 2014 года Кровавая месть / In the Blood (Джон Стокуэлл / John Stockwell) [2014, Великобритания, Пуэрто Рико, триллер, боевик, криминал, HDRip] Dub (Line) bot 700 MB
Фильмы 2014 года Рико, Оскар и тени темнее тёмного / Rico, Oskar und die Tieferschatten (Неле Фолльмар / Neele Leana Vollmar) [2014, комедия, приключения, семейный] HDRip | L1 BOSS 1.45 GB
Показать сообщения:    

Текущее время: Сегодня 04:25

Часовой пояс: GMT



Вы не можете начинать темы
Вы не можете отвечать на сообщения
Вы не можете редактировать свои сообщения
Вы не можете удалять свои сообщения
Вы не можете голосовать в опросах
Вы не можете прикреплять файлы к сообщениям
Вы не можете скачивать файлы