Риддик / Riddick (2013) BDRip 1080p | Theatrical Cut | US Transfer

 
Автор Сообщение

sergej644 ®

Пол:

Стаж: 4 года 11 месяцев

Сообщений: 6037

Откуда: Soviet Union



Награды: Нет

Торрент-статистика

Создавать темы 21-Янв-2015 22:25

[Цитировать]

Информация о фильме
Название: Риддик
Оригинальное название: Riddick
Год выхода: 2013
Жанр: фантастика, боевик, триллер
Режиссер: Дэвид Туи
В ролях: Вин Дизель, Хорди Молья, Мэтью Нэйбл, Кэти Сакхофф, Дэйв Батиста, Букем Вудбайн, Рауль Трухильо, Конрад Пла, Дэнни Бланко, Карл Урбан
О фильме:
Преданный своими и брошенный умирать на пустынной планете, Риддик сражается с хищниками за жизнь и становится сильнее и опаснее себя прежнего. Открывшие на него охоту галактические наемники оказываются пешками в грандиозном плане отмщения. С врагами, возникающими на его пути тогда, когда это нужно самому Риддику, он начинает поход во имя мести, чтобы в конечном счете вернуться на родную Фурию и спасти ее от уничтожения.

Выпущено: США, Великобритания
Студия: Universal Pictures
Продолжительность: 01:58:55
Перевод: Дублированный (лицензия) + Оригинал
Файл
Кодек: x264
Качество: BDRip (источник: Blu-ray Disc)
Видео: 1920x800 (2,40:1), 23.976 fps, 8264 kbps
Аудио #1: AC-3, 6 ch, 448 kbps (Rus)
Аудио #2: AC-3, 6 ch, 640 kbps (Eng)
Субтитры: Русские, Английские, Английские (SDH COLORED)
Скачать: семпл

Скриншоты

MI

Общее
Уникальный идентификатор : 198302734295502483422773873489593162526 (0x952FB7A7BF16087CBB4F94483502DB1E)
Полное имя : F:Riddick.2013.BDRip.1080p.Rus.Eng.mkv
Формат : Matroska
Версия формата : Version 2
Размер файла : 7,76 Гбайт
Продолжительность : 1 ч. 58 м.
Общий поток : 9341 Кбит/сек
Название фильма : Риддик / Riddick (2013)
Дата кодирования : UTC 2014-02-27 13:53:04
Программа кодирования : mkvmerge v5.8.0 ('No Sleep / Pillow') built on Sep 2 2012 15:37:04
Библиотека кодирования : libebml v1.2.3 + libmatroska v1.3.0
Attachment : Yes
Видео
Идентификатор : 1
Формат : AVC
Формат/Информация : Advanced Video Codec
Профиль формата : High@L4.1
Параметр CABAC формата : Да
Параметр ReFrames формата : 5 кадров
Идентификатор кодека : V_MPEG4/ISO/AVC
Продолжительность : 1 ч. 58 м.
Битрейт : 8264 Кбит/сек
Ширина : 1920 пикселей
Высота : 800 пикселей
Соотношение сторон : 2,40:1
Режим частоты кадров : Постоянный
Частота кадров : 23,976 кадра/сек
Цветовое пространство : YUV
Субдискретизация насыщенности : 4:2:0
Битовая глубина : 8 бит
Тип развёртки : Прогрессивная
Бит/(Пиксели*Кадры) : 0.224
Размер потока : 6,70 Гбайт (86%)
Заголовок : Release by N1NT3NDO
Библиотека кодирования : x264 core 142 r2389kMod 956c8d8
Настройки программы : cabac=1 / ref=5 / deblock=1:-3:-3 / analyse=0x3:0x133 / me=umh / subme=11 / psy=1 / fade_compensate=0.00 / psy_rd=1.00:0.00 / mixed_ref=1 / me_range=32 / chroma_me=1 / trellis=2 / 8x8dct=1 / cqm=0 / deadzone=21,11 / fast_pskip=0 / chroma_qp_offset=-2 / threads=12 / lookahead_threads=2 / sliced_threads=0 / nr=0 / decimate=0 / interlaced=0 / bluray_compat=0 / constrained_intra=0 / fgo=0 / bframes=8 / b_pyramid=2 / b_adapt=2 / b_bias=0 / direct=3 / weightb=1 / open_gop=0 / weightp=2 / keyint=240 / keyint_min=23 / scenecut=40 / intra_refresh=0 / rc=2pass / mbtree=0 / bitrate=8264 / ratetol=1.0 / qcomp=0.60 / qpmin=0 / qpmax=69 / qpstep=4 / cplxblur=20.0 / qblur=0.5 / ip_ratio=1.40 / pb_ratio=1.30 / aq=1:1.00
Язык : English
Default : Да
Forced : Нет
Аудио #1
Идентификатор : 2
Формат : AC-3
Формат/Информация : Audio Coding 3
Расширение режима : CM (complete main)
Параметр Endianness формата : Big
Идентификатор кодека : A_AC3
Продолжительность : 1 ч. 58 м.
Вид битрейта : Постоянный
Битрейт : 448 Кбит/сек
Каналы : 6 каналов
Расположение каналов : Front: L C R, Side: L R, LFE
Частота : 48,0 КГц
Битовая глубина : 16 бит
Метод сжатия : С потерями
Размер потока : 381 Мбайт (5%)
Заголовок : Russian
Язык : Russian
Default : Да
Forced : Нет
Аудио #2
Идентификатор : 3
Формат : AC-3
Формат/Информация : Audio Coding 3
Расширение режима : CM (complete main)
Параметр Endianness формата : Big
Идентификатор кодека : A_AC3
Продолжительность : 1 ч. 58 м.
Вид битрейта : Постоянный
Битрейт : 640 Кбит/сек
Каналы : 6 каналов
Расположение каналов : Front: L C R, Side: L R, LFE
Частота : 48,0 КГц
Битовая глубина : 16 бит
Метод сжатия : С потерями
Размер потока : 544 Мбайт (7%)
Заголовок : English
Язык : English
Default : Нет
Forced : Нет
Текст #1
Идентификатор : 4
Формат : UTF-8
Идентификатор кодека : S_TEXT/UTF8
Идентификатор кодека/Информация : UTF-8 Plain Text
Заголовок : Russian
Язык : Russian
Default : Нет
Forced : Нет
Текст #2
Идентификатор : 5
Формат : UTF-8
Идентификатор кодека : S_TEXT/UTF8
Идентификатор кодека/Информация : UTF-8 Plain Text
Заголовок : English
Язык : English
Default : Нет
Forced : Нет
Текст #3
Идентификатор : 6
Формат : UTF-8
Идентификатор кодека : S_TEXT/UTF8
Идентификатор кодека/Информация : UTF-8 Plain Text
Заголовок : English (SDH COLORED)
Язык : English
Default : Нет
Forced : Нет
Меню
00:00:00.000 : en:(01)00:00:00:000
00:05:35.418 : en:(02)00:05:35:418
00:12:10.521 : en:(03)00:12:10:521
00:18:18.388 : en:(04)00:18:18:388
00:22:03.488 : en:(05)00:22:03:488
00:26:18.285 : en:(06)00:26:18:285
00:32:10.762 : en:(07)00:32:10:762
00:38:27.346 : en:(08)00:38:27:346
00:42:47.940 : en:(09)00:42:47:940
00:50:26.732 : en:(10)00:50:26:732
00:55:23.737 : en:(11)00:55:23:737
01:01:42.156 : en:(12)01:01:42:156
01:09:30.499 : en:(13)01:09:30:499
01:14:05.899 : en:(14)01:14:05:899
01:20:58.812 : en:(15)01:20:58:812
01:25:34.170 : en:(16)01:25:34:170
01:33:39.780 : en:(17)01:33:39:780
01:39:39.765 : en:(18)01:39:39:765
01:47:52.716 : en:(19)01:47:52:716
01:54:47.171 : en:(20)01:54:47:171
01:58:45.743 : en:(21)01:58:45:743

x264

x264 [info]: frame I:1360 Avg QP:14.21 size:191531
x264 [info]: frame P:41734 Avg QP:16.70 size: 73226
x264 [info]: frame B:127759 Avg QP:18.66 size: 31640
x264 [info]: consecutive B-frames: 3.3% 4.7% 14.7% 17.1% 18.6% 34.5% 4.2% 1.3% 1.5%
ЦитатаКто-то писал:Звук был взят с DVD9 R5 и перетянут под 23,976 fps.
Рип сделан по всем канонам правильного изготовления рипов, сравнимых с работами таких мастеров как: AlexKa, boriy, K.A.F, и других хороших ребят. В таком ключе я и продолжу дальше изготавливать свои качественные рипы!
[Профиль] [ЛС]
Показать сообщения:    

Текущее время: Сегодня 15:59

Часовой пояс: GMT



Вы не можете начинать темы
Вы не можете отвечать на сообщения
Вы не можете редактировать свои сообщения
Вы не можете удалять свои сообщения
Вы не можете голосовать в опросах
Вы не можете прикреплять файлы к сообщениям
Вы не можете скачивать файлы