Ривер / River [S01] (2015) HDRip | AlexFilm

 
Автор Сообщение

достали все ®

Пол:

Стаж: 1 год 8 месяцев

Сообщений: 6577



Награды: 12 (Подробнее)

Mega Seeder 4 (Количество: 1) Mega Releaser 1 (Количество: 1) Mega Seeder 2 (Количество: 1)
Торрент-статистика

Создавать темы 08-Янв-2016 08:13

[Цитировать]

Информация о фильме
Название: Ривер
Оригинальное название: River
Год выхода: 2015
Жанр: драма, криминал
Режиссер: Тим Файвелл, Джесика Хоббс, Ричард Лэкстон
В ролях: Лесли Мэнвилл, Стеллан Скарсгард, Николя Уолкер, Адиль Ахтар, Эдди Марсан, Джорджина Рич, Оуэн Тил, Тёрло Конвери, Сорча Кьюсак, Майкл Мэлоуни
О фильме:
Повествование драмы сфокусируется на детективе полиции Джоне Ривере, наделённом даром расследовать самые запутанные дела, но страдающем от собственных демонов — Ривера преследуют жертвы убийств нераскрытых дел и дела которых уже казалось бы давно закрыты.

Страна: Великобритания
Продолжительность: ~00:58:00 серия
Перевод: Профессиональный (многоголосый закадровый) [AlexFilm]
Автор перевода: Константин Кривоногов
Озвучка: Наталья Ланц, Светлана Чистохина, Владимир Курдов, Михаил Суслов, Сергей Пономарев
Файл
Кодек: XviD / MP3
Качество: HDRip
Видео: MPEG4, XviD, 720x400 (16:9), 25.000 fps, 1 403 Kbps (0.195 bit/pixel)
Звук:
Аудио Rus: MPEG Layer 3, 48,0 kHz, 2 ch, 128 kb/s — многоголосый закадровый
Аудио Eng: MPEG Layer 3, 48,0 kHz, 2 ch, 128 kb/s — оригинал
Семпл

Скриншоты

Screenshots

MediaInfo

Общее
Полное имя : D:Ривер (сезон 1) River (2015) HDRip - AlexFilmRiver.S01E01.HDRip.Rus.Eng.DV.AlexFilm.avi
Формат : AVI
Формат/Информация : Audio Video Interleave
Размер файла : 691 Мбайт
Продолжительность : 57 м.
Общий поток : 1669 Кбит/сек
Название фильма : River 1x01 @ AlexFilm
Программа кодирования : VirtualDubModRus 1.5.10.2 (build 2542/release)
Библиотека кодирования : VirtualDubMod build 2542/release
Видео
Идентификатор : 0
Формат : MPEG-4 Visual
Профиль формата : Advanced Simple@L5
Параметр BVOP формата : Нет
Параметр QPel формата : Нет
Параметр GMC формата : Без точки перехода
Параметр матрицы формата : Default (H.263)
Идентификатор кодека : XVID
Идентификатор кодека/Подсказка : XviD
Продолжительность : 57 м.
Битрейт : 1398 Кбит/сек
Ширина : 720 пикселей
Высота : 400 пикселей
Соотношение сторон : 16:9
Частота кадров : 25,000 кадров/сек
Цветовое пространство : YUV
Субдискретизация насыщенности : 4:2:0
Битовая глубина : 8 бит
Тип развёртки : Прогрессивная
Метод сжатия : С потерями
Бит/(Пиксели*Кадры) : 0.194
Размер потока : 579 Мбайт (84%)
Библиотека кодирования : XviD 73
Аудио #1
Идентификатор : 1
Формат : MPEG Audio
Версия формата : Version 1
Профиль формата : Layer 3
Идентификатор кодека : 55
Идентификатор кодека/Подсказка : MP3
Продолжительность : 57 м.
Вид битрейта : Постоянный
Битрейт : 128 Кбит/сек
Каналы : 2 канала
Частота : 48,0 КГц
Метод сжатия : С потерями
Размер потока : 53,0 Мбайт (8%)
Выравнивание : Соединение по промежуткам
Продолжительность промежутка : 40 мс. (1,00 видеокадр)
Время предзагрузки промежутка : 504 мс.
Аудио #2
Идентификатор : 2
Формат : MPEG Audio
Версия формата : Version 1
Профиль формата : Layer 3
Режим : Joint stereo
Расширение режима : MS Stereo
Идентификатор кодека : 55
Идентификатор кодека/Подсказка : MP3
Продолжительность : 57 м.
Вид битрейта : Постоянный
Битрейт : 128 Кбит/сек
Каналы : 2 канала
Частота : 48,0 КГц
Метод сжатия : С потерями
Размер потока : 53,0 Мбайт (8%)
Выравнивание : Соединение по промежуткам
Продолжительность промежутка : 40 мс. (1,00 видеокадр)
Время предзагрузки промежутка : 504 мс.
[Профиль] [ЛС]
Показать сообщения:    

Текущее время: Сегодня 06:18

Часовой пояс: GMT



Вы не можете начинать темы
Вы не можете отвечать на сообщения
Вы не можете редактировать свои сообщения
Вы не можете удалять свои сообщения
Вы не можете голосовать в опросах
Вы не можете прикреплять файлы к сообщениям
Вы не можете скачивать файлы