Рецепт Победы. Медицина в Годы Великой Отечественной Войны (Глеб Добровольский) [2015, Документальный, HDTV 720p]

 
Автор Сообщение

TorrentFilm ®

Пол:

Стаж: 2 года

Сообщений: 7741



Награды: Нет

Торрент-статистика

Создавать темы 17-Май-2015 00:04

[Цитировать]

Рецепт Победы. Медицина в Годы Великой Отечественной Войны- Год выпуска: 2015
Страна: Россия
Студия: Россия HD
Жанр: Документальный
Продолжительность: 0:43:29
Автор: Марина Бандиленко
Режиссер: Глеб Добровольский-Описание: Когда началась война, военные медики оказались в тяжелейшей ситуации. На фронте катастрофически не хватало врачей, особенно хирургов. Медсестры, санитары, санинструкторы в большинстве своем успели окончить только ускоренные курсы. Почти половина госпиталей и фармацевтических складов в первые же месяцы войны оказалась на оккупированной территории. Прифронтовая обстановка осенью и зимой 1941 – 1942 годов угрожала невиданными эпидемиями тифа, дизентерии, холеры…-Автор рипа: lrn
Автор записи: Generalfilm
Сэмпл: sendfile-Тип релиза: HDTV 720p
Контейнер: MKV
Видео: 1280x720 (16:9), 25,000 fps, H264, ~4000 kbps avg, ~0.174 bit/pixel
Аудио: 48 kHz, AC3 Dolby Digital, 2/0 (L,R) ch, ~192.00 kbps avg-

MediaInfo

GeneralUnique ID : 236460058473300084090533670374143194558 (0xB1E48CFC69ED1B05A8CE71426F9C75BE)Complete name : E:\uTorrent.Temp\Temp\Recept.Pobedi.Medicina.v.Godi.VOV.2015.HDTV.720p.x264-lrn.mkvFormat : MatroskaFormat version : Version 4 / Version 2File size : 1.27 GiBDuration : 43mn 29sOverall bit rate : 4 193 KbpsMovie name : Recept.Pobedi.Medicina.v.Godi.VOV.2015.HDTV.720p.x264-lrnEncoded date : UTC 2010-02-22 21:41:31Writing application : mkvmerge v5.9.0 ('On The Loose') built on Dec 9 2012 15:37:01Writing library : libebml v1.3.0 + libmatroska v1.4.0
VideoID : 1Format : AVCFormat/Info : Advanced Video CodecFormat profile : High@L4.1Format settings, CABAC : YesFormat settings, ReFrames : 8 framesCodec ID : V_MPEG4/ISO/AVCDuration : 43mn 29sBit rate : 4 000 KbpsWidth : 1 280 pixelsHeight : 720 pixelsDisplay aspect ratio : 16:9Frame rate mode : ConstantFrame rate : 25.000 fpsColor space : YUVChroma subsampling : 4:2:0Bit depth : 8 bitsScan type : ProgressiveBits/(Pixel*Frame) : 0.174Stream size : 1.19 GiB (93%)Writing library : x264 core 142 r2479 dd79a61Encoding settings : cabac=1 / ref=8 / deblock=1:-3:-3 / analyse=0x3:0x113 / me=umh / subme=9 / psy=1 / psy_rd=1.00:0.00 / mixed_ref=1 / me_range=32 / chroma_me=1 / trellis=2 / 8x8dct=1 / cqm=0 / deadzone=21,11 / fast_pskip=1 / chroma_qp_offset=-4 / threads=12 / lookahead_threads=2 / sliced_threads=0 / nr=0 / decimate=1 / interlaced=0 / bluray_compat=0 / constrained_intra=0 / bframes=8 / b_pyramid=2 / b_adapt=2 / b_bias=0 / direct=1 / weightb=1 / open_gop=0 / weightp=2 / keyint=250 / keyint_min=25 / scenecut=40 / intra_refresh=0 / rc_lookahead=50 / rc=2pass / mbtree=1 / bitrate=4000 / ratetol=1.0 / qcomp=0.60 / qpmin=0 / qpmax=69 / qpstep=4 / cplxblur=20.0 / qblur=0.5 / vbv_maxrate=62500 / vbv_bufsize=78125 / nal_hrd=none / filler=0 / ip_ratio=1.40 / aq=1:1.00Default : YesForced : NoColor range : LimitedColor primaries : BT.709Transfer characteristics : BT.709Matrix coefficients : BT.709
AudioID : 2Format : AC-3Format/Info : Audio Coding 3Mode extension : CM (complete main)Format settings, Endianness : BigCodec ID : A_AC3Duration : 43mn 29sBit rate mode : ConstantBit rate : 192 KbpsChannel(s) : 2 channelsChannel positions : Front: L RSampling rate : 48.0 KHzCompression mode : LossyStream size : 59.7 MiB (5%)Language : RussianDefault : YesForced : No

x264 log

raw [info]: 1280x720p 1:1 @ 25/1 fps (cfr)x264 [info]: using SAR=1/1x264 [info]: using cpu capabilities: MMX2 SSE2Fast SSSE3 SSE4.2 AVXx264 [info]: profile High, level 4.1x264 [info]: frame I:416 Avg QP:15.83 size: 94334x264 [info]: frame P:16583 Avg QP:18.30 size: 36828x264 [info]: frame B:48232 Avg QP:20.74 size: 13572x264 [info]: consecutive B-frames: 2.9% 3.6% 8.7% 48.4% 15.8% 13.3% 3.6% 3.1% 0.7%x264 [info]: mb I I16..4: 5.5% 82.6% 12.0%x264 [info]: mb P I16..4: 3.7% 22.7% 1.8% P16..4: 38.2% 20.0% 8.8% 0.0% 0.0% skip: 4.8%x264 [info]: mb B I16..4: 0.5% 3.9% 0.3% B16..8: 35.1% 11.6% 2.4% direct: 9.5% skip:36.7% L0:44.7% L1:44.9% BI:10.4%x264 [info]: 8x8 transform intra:80.8% inter:71.3%x264 [info]: coded y,uvDC,uvAC intra: 74.0% 43.2% 25.4% inter: 29.0% 24.1% 2.5%x264 [info]: i16 v,h,dc,p: 37% 15% 6% 42%x264 [info]: i8 v,h,dc,ddl,ddr,vr,hd,vl,hu: 15% 12% 7% 7% 10% 12% 12% 11% 13%x264 [info]: i4 v,h,dc,ddl,ddr,vr,hd,vl,hu: 14% 10% 4% 7% 14% 14% 14% 10% 12%x264 [info]: i8c dc,h,v,p: 64% 15% 13% 7%x264 [info]: Weighted P-Frames: Y:8.6% UV:2.0%x264 [info]: ref P L0: 52.7% 13.1% 15.7% 5.5% 4.3% 3.3% 2.9% 2.1% 0.4% 0.0%x264 [info]: ref B L0: 76.2% 11.3% 5.5% 2.9% 2.3% 1.3% 0.6%x264 [info]: ref B L1: 93.2% 6.8%x264 [info]: kb/s:3999.77encoded 65234 frames, 13.12 fps, 3999.77 kb/s

Скриншоты

-
[Профиль] [ЛС]
Кто просматривает тему:

Форум Тема Автор Размер
Разная литература А.А. Синельникова | 190 рецептов для здоровья гипертоника (2012) [FB2] достали все 805 KB
Кулинария Андрей Захарин (ред.) - Лучшие праздничные рецепты (2014) РDF BOSS 112 MB
Разная литература Виктор Андреев (сост.) - Коптим, вялим, солим, маринуем мясо, рыбу, птицу, сало, сыр. 700 домашних рецептов (2015) FB2, RTF достали все 13 MB
Документальные HD Вильям Похлебкин. Рецепты Нашей Жизни (Вера Кильчевская) [2014, Документальный, HDTV 720p] TorrentFilm 1.27 GB
Разное Водка как лекарство. 40 рецептов лечения водкой (2015) WEBRip Garik014 319 MB
Кулинария Газета | 1001 совет и секрет. Спецвыпуск №4. Быстрые рецепты блюд из курицы (2015) [DJVU] достали все 11 MB
Кулинария Газета | Золотая коллекция рецептов. Спецвыпуск №45 (апрель 2015) [DJVU] достали все 12 MB
Кулинария Газета | Золотая коллекция рецептов. Спецвыпуск №50 (май 2015) [PDF] достали все 21 MB
Показать сообщения:    

Текущее время: Сегодня 20:47

Часовой пояс: GMT



Вы не можете начинать темы
Вы не можете отвечать на сообщения
Вы не можете редактировать свои сообщения
Вы не можете удалять свои сообщения
Вы не можете голосовать в опросах
Вы не можете прикреплять файлы к сообщениям
Вы не можете скачивать файлы