Рестлер / Wrestler (Даррен Аронофски / Darren Aronofsky) [2008, США, Франция, Драма, спорт, BDRip-AVC] Dub + Sub Rus, Eng + Original Eng

 
Автор Сообщение

TorrentFilm ®

Пол:

Стаж: 2 года

Сообщений: 7741



Награды: Нет

Торрент-статистика

Создавать темы 14-Янв-2015 00:00

[Цитировать]

РестлерThe Wrestler«Любовь. Боль. Слава.»
Страна: США, Франция
Жанр: Драма, спорт
Год выпуска: 2008
Продолжительность: 01:49:10
Перевод: Профессиональный (дублированный) Blu-ray
Cубтитры: русские
Режиссер: Даррен Аронофски / Darren Aronofsky
В ролях: Микки Рурк, Мариса Томей, Ивэн Рэйчел Вуд, Марк Марголис, Тодд Бэрри, Уасс М. Стивенс, Джуда Фридлендер, Эрнест Миллер, Дилан Кейт Саммерс
Описание: Главный герой фильма - Рэнди «Баран» Робинсон - был звездой 80-х, но стал бледной копией самого себя. Получив инфаркт во время одного из матчей, борец услышал от врачей неприятную весть: если он продолжит выступления, то может умереть. Пытаясь начать жизнь заново, Рэнди устроился работать в магазин и налаживал отношения с дочерью. Но уж больно заманчивой была перспектива матча-реванша со старым соперником по кличке Аятолла…
Доп. информация:
Релиз группы:
Качество видео: BDRip-AVC | Рестлер / Wrestler (2008) Blu-ray|HD Club|
Формат видео: MKV
Видео: 1152x480 (2:40:1), 23,976 fps, 4212 Кbps, 0.318 bit/pixe
Аудио: 48 kHz, AC3 Dolby Digital, 3/2 (L,C,R,l,r) + LFE ch, ~448.00 kbps avg | DUB
Аудио 2: 48 kHz, AC3 Dolby Digital, 3/2 (L,C,R,l,r) + LFE ch, ~448.00 kbps avg | ENG
Формат субтитров: softsub (SRT)
Доп. информация о субтитрах: отключаемые

Знаете ли Вы что

* На главную роль претендовал Николас Кейдж.
* Тренером Микки Рурка был Афа Анойа.
* Сценарист фильма Роберт Д. Сигел снялся в фильме в небольшой роли фаната, который взял автограф у Рэнди Робинсона.
* Актриса Мариса Томей, сыгравшая подругу Рэнди, училась с режиссером фильма Дарреном Аронофски в одной школе (средняя школа Эдварда Мэроу в Нью-Йорке).

MediaInfo

General
Unique ID : 195417661881740800115730519675140194286 (0x9304129A5F0ACD45AC1FE3A31C163FEE)
Complete name : E:\Мои рипы\Реслер\Реслер by_IVAN@190282.mkv
Format : Matroska
Format version : Version 4 / Version 2
File size : 3.97 GiB
Duration : 1h 49mn
Overall bit rate : 5 212 Kbps
Encoded date : UTC 2015-01-06 03:25:09
Writing application : mkvmerge v7.0.0 ('Where We Going') 64bit built on Jun 9 2014 15:16:27
Writing library : libebml v1.3.0 + libmatroska v1.4.1
_STATISTICS_WRITING_APP : mkvmerge v7.0.0 ('Where We Going') 64bit built on Jun 9 2014 15:16:27
_STATISTICS_WRITING_DATE_UTC : 2015-01-06 03:25:09
_STATISTICS_TAGS : BPS DURATION NUMBER_OF_FRAMES NUMBER_OF_BYTES
DURATION : 01:48:49.485000000
NUMBER_OF_FRAMES : 1525
NUMBER_OF_BYTES : 53168
Video
ID : 1
Format : AVC
Format/Info : Advanced Video Codec
Format profile : High@L4.1
Format settings, CABAC : Yes
Format settings, ReFrames : 13 frames
Codec ID : V_MPEG4/ISO/AVC
Duration : 1h 49mn
Bit rate : 4 212 Kbps
Width : 1 152 pixels
Height : 480 pixels
Display aspect ratio : 2.40:1
Frame rate mode : Constant
Frame rate : 23.976 fps
Color space : YUV
Chroma subsampling : 4:2:0
Bit depth : 8 bits
Scan type : Progressive
Bits/(Pixel*Frame) : 0.318
Stream size : 3.21 GiB (81%)
Writing library : x264 core 144 r2525kMod 40bb568
Encoding settings : cabac=1 / ref=13 / deblock=1:-3:-3 / analyse=0x3:0x113 / me=umh / subme=11 / psy=1 / fade_compensate=0.00 / psy_rd=1.00:0.15 / mixed_ref=1 / me_range=48 / chroma_me=1 / trellis=2 / 8x8dct=1 / cqm=0 / deadzone=21,11 / fast_pskip=0 / chroma_qp_offset=0 / threads=6 / lookahead_threads=6 / sliced_threads=0 / slices=10 / nr=0 / decimate=1 / interlaced=0 / bluray_compat=0 / constrained_intra=0 / fgo=0 / bframes=16 / b_pyramid=2 / b_adapt=2 / b_bias=0 / direct=1 / weightb=1 / open_gop=1 / weightp=2 / keyint=240 / keyint_min=23 / scenecut=40 / intra_refresh=0 / rc_lookahead=40 / rc=crf / mbtree=0 / crf=19.6000 / qcomp=0.60 / qpmin=0 / qpmax=69 / qpstep=4 / vbv_maxrate=50000 / vbv_bufsize=62500 / crf_max=0.0 / nal_hrd=none / filler=0 / ip_ratio=1.40 / pb_ratio=1.30 / aq=1:1.00
Default : Yes
Forced : No
Color primaries : BT.709
Transfer characteristics : BT.709
Matrix coefficients : BT.709
Audio #1
ID : 2
Format : AC-3
Format/Info : Audio Coding 3
Mode extension : CM (complete main)
Format settings, Endianness : Big
Codec ID : A_AC3
Duration : 1h 49mn
Bit rate mode : Constant
Bit rate : 448 Kbps
Channel(s) : 6 channels
Channel positions : Front: L C R, Side: L R, LFE
Sampling rate : 48.0 KHz
Bit depth : 16 bits
Compression mode : Lossy
Stream size : 350 MiB (9%)
Title : Dub
Default : Yes
Forced : No
Audio #2
ID : 3
Format : AC-3
Format/Info : Audio Coding 3
Mode extension : CM (complete main)
Format settings, Endianness : Big
Codec ID : A_AC3
Duration : 1h 49mn
Bit rate mode : Constant
Bit rate : 448 Kbps
Channel(s) : 6 channels
Channel positions : Front: L C R, Side: L R, LFE
Sampling rate : 48.0 KHz
Bit depth : 16 bits
Compression mode : Lossy
Stream size : 350 MiB (9%)
Title : Eng
Default : No
Forced : No
Text #1
ID : 4
Format : UTF-8
Codec ID : S_TEXT/UTF8
Codec ID/Info : UTF-8 Plain Text
Title : Rus
Default : Yes
Forced : No
Text #2
ID : 5
Format : UTF-8
Codec ID : S_TEXT/UTF8
Codec ID/Info : UTF-8 Plain Text
Title : Eng
Default : No
Forced : No
Menu
00:00:00.000 : :Chapter 1
00:07:33.411 : :Chapter 2
00:12:00.302 : :Chapter 3
00:12:59.445 : :Chapter 4
00:15:55.370 : :Chapter 5
00:20:56.922 : :Chapter 6
00:23:15.434 : :Chapter 7
00:25:52.675 : :Chapter 8
00:29:59.255 : :Chapter 9
00:38:14.041 : :Chapter 10
00:46:43.842 : :Chapter 11
00:49:46.315 : :Chapter 12
00:53:19.528 : :Chapter 13
00:55:10.222 : :Chapter 14
00:58:07.858 : :Chapter 15
01:08:42.326 : :Chapter 16
01:12:22.337 : :Chapter 17
01:15:45.707 : :Chapter 18
01:19:10.162 : :Chapter 19
01:22:46.836 : :Chapter 20
01:25:09.686 : :Chapter 21
01:28:07.738 : :Chapter 22
01:31:15.552 : :Chapter 23
01:36:02.756 : :Chapter 24
01:37:35.890 : :Chapter 25
01:40:35.404 : :Chapter 26
01:45:16.518 : :Chapter 27
01:48:44.475 : :Chapter 28

x264 log

VIDEO ENCODING
x264 [info]: frame I:900 Avg QP:18.52 size: 68322
x264 [info]: frame P:34455 Avg QP:19.61 size: 35823
x264 [info]: frame B:121690 Avg QP:20.67 size: 18361
x264 [info]: consecutive B-frames: 1.6% 4.3% 9.6% 21.1% 15.5% 33.0% 5.2% 1.5% 2.8% 0.8% 1.3% 1.2% 0.7% 0.2% 0.3% 0.1% 0.9%
x264 [info]: kb/s:4311.53
x264 [total]: encoded 157045 frames, 3.52 fps, 4311.53 kb/s, duration 12:23:46.28

Скриншот c названием фильма

Скриншоты

Убедительная просьба пожалуйста кто скачал не бросайте раздачу!!!
[Профиль] [ЛС]

Создавать темы 06-Авг-2015 22:48 (спустя 6 месяцев 23 дня)

Топик был перенесен из форума Фильмы до 2014 года в форум Фильмы до 2012 года
sergej644
 

Создавать темы 12-Июн-2016 08:51 (спустя 1 год 4 месяца)

Топик был перенесен из форума Фильмы 2011 года в форум Фильмы 2006-2008 года
Russian Mafia
 
Показать сообщения:    

Текущее время: Сегодня 18:49

Часовой пояс: GMT



Вы не можете начинать темы
Вы не можете отвечать на сообщения
Вы не можете редактировать свои сообщения
Вы не можете удалять свои сообщения
Вы не можете голосовать в опросах
Вы не можете прикреплять файлы к сообщениям
Вы не можете скачивать файлы