Репортаж: Апокалипсис / [REC] 4: Apocalipsis (2014) BDRip [1080p] [Line]

 
Автор Сообщение

sergej644 ®

Пол:

Стаж: 4 года 11 месяцев

Сообщений: 6035

Откуда: Soviet Union



Награды: Нет

Торрент-статистика

Создавать темы 18-Янв-2015 01:59

[Цитировать]

-Репортаж: Апокалипсис / [REC] 4: Apocalipsis (2014) BDRip- Год выпуска: 2014
Производство: Испания, Filmax
Жанр: Ужасы
Перевод: Дублированный (Line), Одноголосый закадровый, любительский [Вячеслав Замез]
Субтитры: Вшитые (отключаемые)
Язык субтитров: английские
Дата мировой премьеры: 9 сентября 2014
Дата российской премьеры: 11 декабря 2014
Режиссер: Жауме Балагуэро
Продюсер: Хулио Фернандес
Актеры: Мануэла Веласко, Хавьер Ботет, Пако Мансанедо, Мария Альфонса Россо, Исмаэль Фричи, Криспуло Кабесас, Мариано Венансио, Эмилио Буале, Эктор Коломе, Марк Шардан
Описание фильма:
Анхела приходит в себя на корабле посреди океана. После вспышки эпидемии неизвестного вируса, превращающего людей в зомби, ученые решили изолировать инфицированных, но не заболевших людей, чтобы исследовать природу заразы. На специально оборудованном бывшем нефтяном танкере есть все необходимое оборудование для проведения лабораторных экспериментов. Но, ни ученые, ни команда даже не догадываются, что их ждет. Ведь инфицированные несут в себе гибель для всего человечества.

Продолжительность: 01:34:59
Качество видео: BDRip
Видеокодек: MPEG-4 AVC/H.264
Битрейт видео: ~13100 Кбит/с
Размер кадра: 1920x804
Аудио 1: Русский AC3, 2 ch, 384 Кбит/с | Дубляж
Аудио 2: Русский DTS, 6 ch, 1510 Кбит/с | Вячеслав Замез
Аудио 3: Русский AC3, 6 ch, 640 Кбит/с | Вячеслав Замез-

MediaInfo:

General
Complete name : E:\12\REC.4.Apocalypse.2014.BDRip.1080p.mkv
Format : Matroska
File size : 10.6 GiB
Duration : 1h 34mn
Overall bit rate : 15.9 Mbps
Encoded date : UTC 2015-01-17 15:17:46
Writing application : mkvmerge v7.2.0 ('On Every Street') 32bit built on Sep 13 2014 15:42:11
Writing library : libebml v1.3.0 + libmatroska v1.4.1
Video
ID : 1
Format : AVC
Format/Info : Advanced Video Codec
Format profile : [url=mailto:High@L4.1]High@L4.1[/url]
Format settings, CABAC : Yes
Format settings, ReFrames : 5 frames
Muxing mode : Container profile=Unknown@4.1
Codec ID : V_MPEG4/ISO/AVC
Duration : 1h 34mn
Bit rate : 13.1 Mbps
Width : 1 920 pixels
Height : 804 pixels
Display aspect ratio : 2.35:1
Frame rate : 24.000 fps
Resolution : 8 bits
Colorimetry : 4:2:0
Scan type : Progressive
Bits/(Pixel*Frame) : 0.353
Stream size : 8.68 GiB (82%)
Writing library : x264 core 142 r2431+42 c69a006 tMod [8-bit@all X86_64]
Encoding settings : cabac=1 / ref=5 / deblock=1:-3:-3 / analyse=0x3:0x113 / me=tesa / subme=11 / psy=1 / fade_compensate=0.00 / psy_rd=1.05:0.00 / mixed_ref=1 / me_range=32 / chroma_me=1 / trellis=2 / 8x8dct=1 / cqm=0 / deadzone=21,11 / fast_pskip=0 / chroma_qp_offset=-2 / threads=18 / lookahead_threads=3 / sliced_threads=0 / nr=0 / decimate=0 / interlaced=0 / bluray_compat=0 / constrained_intra=0 / fgo=0 / bframes=8 / b_pyramid=2 / b_adapt=2 / b_bias=0 / direct=3 / weightb=1 / open_gop=0 / weightp=2 / keyint=250 / keyint_min=24 / scenecut=40 / intra_refresh=0 / rc_lookahead=140 / rc=crf / mbtree=0 / crf=14.9000 / qcomp=0.70 / qpmin=0:0:0 / qpmax=69:69:69 / qpstep=4 / vbv_maxrate=40000 / vbv_bufsize=30000 / crf_max=0.0 / nal_hrd=none / filler=0 / ip_ratio=1.40 / pb_ratio=1.30 / aq=4:0.80 / aq-sensitivity=10.00 / aq-factor=1.00:1.00:1.00 / aq2=0 / aq3=0
Audio #1
ID : 2
Format : AC-3
Format/Info : Audio Coding 3
Codec ID : A_AC3
Duration : 1h 34mn
Bit rate mode : Constant
Bit rate : 384 Kbps
Channel(s) : 2 channels
Channel positions : L R
Sampling rate : 48.0 KHz
Stream size : 261 MiB (2%)
Title : AC3, 2 ch, 384 Кбит/с
Language : Russian
Audio #2
ID : 3
Format : DTS
Format/Info : Digital Theater Systems
Codec ID : A_DTS
Duration : 1h 34mn
Bit rate mode : Constant
Bit rate : 1 510 Kbps
Channel(s) : 6 channels
Channel positions : Front: L C R, Surround: L R, LFE
Sampling rate : 48.0 KHz
Resolution : 24 bits
Stream size : 1.00 GiB (9%)
Title : Вячеслав Замез
Language : Russian
Audio #3
ID : 4
Format : AC-3
Format/Info : Audio Coding 3
Codec ID : A_AC3
Duration : 1h 34mn
Bit rate mode : Constant
Bit rate : 640 Kbps
Channel(s) : 6 channels
Channel positions : Front: L C R, Surround: L R, LFE
Sampling rate : 48.0 KHz
Stream size : 435 MiB (4%)
Title : Вячеслав Замез
Language : Russian
Text #1
ID : 5
Format : UTF-8
Codec ID : S_TEXT/UTF8
Codec ID/Info : UTF-8 Plain Text
Language : Russian
Text #2
ID : 6
Format : UTF-8
Codec ID : S_TEXT/UTF8
Codec ID/Info : UTF-8 Plain Text
Menu
00:00:00.000 : en:00:00:00.000
00:13:18.250 : en:00:13:18.250
00:23:28.625 : en:00:23:28.625
00:33:28.833 : en:00:33:28.833
00:44:58.667 : en:00:44:58.667
00:54:27.417 : en:00:54:27.417
01:06:14.875 : en:01:06:14.875
01:17:56.167 : en:01:17:56.167
01:29:46.708 : en:01:29:46.708
-Скриншоты:
Время раздачи: 24/7 - круглосуточно
[Профиль] [ЛС]
Кто просматривает тему:

Форум Тема Автор Размер
Эпоха СССР Ксенофонтов И.Н. - Мир, которого хотели и который ненавидели: Документальный репортаж [1991, DjVu, RUS] sergej644 10 MB
Зарубежные сериалы Ответный удар / Strike back / Сезон: 1 / Серии: 1-6 из 6 (Дэниэл Персивал, Эдвард Холл, Билл Иглз) [2010, Боевик, триллер, HDRip] MVO (Русский Репортаж) + Original Russian Mafia 3.94 GB
Документальные HD Парада в честь 70-летия Великой Победы / 70th Anniversary of the Great Victory Parad [2015, репортаж, UHDTV 2160p] TorrentFilm 16.58 GB
Зарубежные сериалы Преступления страсти / Mördaren ljuger inte ensam [S01] (2013) BDRip 720p | Русский Репортаж Russian Mafia 23.57 GB
Зарубежные сериалы Преступления страсти | Mördaren ljuger inte ensam [S01] (2013) HDRip | Русский Репортаж Белочка 6.27 GB
Внежанровая документалистика Профессия - репортер. По дороге в халифат [05/07/2015, Документальный, репортаж, расследование, SATRip] Монах 302 MB
Фильмы (HD DVD, Blu-ray и BDRemux) Репортаж: Апокалипсис / [REC] 4: Apocalipsis (2014) BDRemux 1080p sergej644 29.87 GB
Фильмы (HD Rips | 720p, 1080p) Репортаж: Апокалипсис / [REC] 4: Apocalipsis (2014) BDRip 1080p | Лицензия sergej644 10.19 GB
Показать сообщения:    

Текущее время: Сегодня 05:01

Часовой пояс: GMT



Вы не можете начинать темы
Вы не можете отвечать на сообщения
Вы не можете редактировать свои сообщения
Вы не можете удалять свои сообщения
Вы не можете голосовать в опросах
Вы не можете прикреплять файлы к сообщениям
Вы не можете скачивать файлы