Репетиции (2013) DVB от MediaClub

 
Автор Сообщение

sergej644 ®

Пол:

Стаж: 4 года 11 месяцев

Сообщений: 6042

Откуда: Soviet Union



Награды: Нет

Торрент-статистика

Создавать темы 27-Ноя-2014 22:28

[Цитировать]

Информация о фильме
Оригинальное название: Репетиции
Год выхода: 2013
Жанр: Драма, комедия
Режиссер: Оксана Карас
В ролях: Александра Виноградова, Никита Ефремов, Игорь Яцко, Ирина Денисова, Пётр Фёдоров, Елена Коренева, Александр Яценко, Василий Соловьев, Юрий Шерстнёв, Азамат Нигманов
О фильме:
Театральный художник Александра и талантливый актер Игорь — красивая молодая пара. Они живут вместе, но ежедневно, «на завтра» откладывают самые важные вопросы- семьи, детей, принятия решений. Мегаполис диктует бешеный ритм жизни. Работа, секс, премьеры, встречи дарят опасную иллюзию, что настоящее- всего лишь репетиция, и завтра все можно будет переиграть заново. Не желая уезжать с Игорем на другой конец света, Александра решается на новый роман. Очередные «репетиции», как ей кажется, проходят удачно, но внезапно меняется задуманный сценарий.

Страна: Россия
Студия: 2Д Целлулоид
Продолжительность: 01:39:18
Язык: Русский
Файл
Качество: DVB
Видео: MPEG-2, 2109 Кбит/с, 720x576@785x576
Звук: (MP2, 2 ch, 128 Кбит/с)
Семпл

Скриншоты

MI

Общее
Идентификатор : 19 (0x13)
Полное имя : Repeticii.2013.DVB.MediaClub.ts
Формат : MPEG-TS
Размер файла : 1,63 Гбайт
Продолжительность : 1 ч. 39 м.
Режим общего битрейта : Переменный
Общий поток : 2355 Кбит/сек
Видео
Идентификатор : 204 (0xCC)
Идентификатор меню : 19104 (0x4AA0)
Формат : AVC
Формат/Информация : Advanced Video Codec
Профиль формата : High@L3.0
Параметр CABAC формата : Да
Параметр ReFrames формата : 4 кадра
Идентификатор кодека : 27
Продолжительность : 1 ч. 39 м.
Битрейт : 2109 Кбит/сек
Ширина : 720 пикселей
Высота : 576 пикселей
Соотношение сторон : 4:3
Частота кадров : 25,000 кадров/сек
Стандарт вещания : Component
Цветовое пространство : YUV
Субдискретизация насыщенности : 4:2:0
Битовая глубина : 8 бит
Тип развёртки : Чересстрочная
Порядок развёртки : Верхнее поле первое
Бит/(Пиксели*Кадры) : 0.203
Размер потока : 1,46 Гбайт (90%)
Основные цвета : BT.601 PAL
Характеристики трансфера : BT.470 System B, BT.470 System G
Коэффициенты матрицы : BT.601
Аудио
Идентификатор : 304 (0x130)
Идентификатор меню : 19104 (0x4AA0)
Формат : MPEG Audio
Версия формата : Version 1
Профиль формата : Layer 2
Идентификатор кодека : 4
Продолжительность : 1 ч. 39 м.
Вид битрейта : Постоянный
Битрейт : 128 Кбит/сек
Каналы : 2 канала
Частота : 48,0 КГц
Метод сжатия : С потерями
Задержка видео : 1 с. 94 мс.
Размер потока : 90,9 Мбайт (5%)
Язык : Russian
Язык, дополнительно : Clean effects
Меню
Идентификатор : 1904 (0x770)
Идентификатор меню : 19104 (0x4AA0)
Продолжительность : 1 ч. 39 м.
Список : 204 (0xCC) (AVC) / 304 (0x130) (MPEG Audio, Russian)
Язык : / Russian
Релиз от:
[Профиль] [ЛС]

Создавать темы 06-Авг-2015 22:15 (спустя 8 месяцев 9 дней)

Топик был перенесен из форума Фильмы до 2014 года в форум Фильмы 2013 года
sergej644
 
Показать сообщения:    

Текущее время: Сегодня 10:33

Часовой пояс: GMT



Вы не можете начинать темы
Вы не можете отвечать на сообщения
Вы не можете редактировать свои сообщения
Вы не можете удалять свои сообщения
Вы не можете голосовать в опросах
Вы не можете прикреплять файлы к сообщениям
Вы не можете скачивать файлы