Репетитор (Сергей Виноградов) [2007, Россия, украина, Комедия, мелодрама, DVD5] + Original Rus

 
Автор Сообщение

TorrentFilm ®

Пол:

Стаж: 2 года

Сообщений: 7741



Награды: Нет

Торрент-статистика

Создавать темы 28-Сен-2015 00:10

[Цитировать]

Репетитор
Страна: Россия, украина
Студия: StarMedia
Жанр: Комедия, мелодрама
Год выпуска: 2007
Продолжительность: 01:30:51
Перевод: Не требуется
Cубтитры: нет
Оригинальная аудиодорожка: русский
Режиссер: Сергей Виноградов
В ролях: Елена Дробышева, Григорий Калинин, Наталья Владимировна Костенёва, Валерий Сторожик, Владимир Симонов, Маргарита Шубина
Описание: Юная Настя приводит домой репетитора. Но её маму не радует желание дочки учиться. Подозрительная женщина усматривает в отношениях девочки и преподавателя подоплёку: Настя воспитывалась без отца и теперь влюбилась в маминого ровесника: образованного, импозантного мужчину. Мать любой ценой готова разорвать постыдные отношения: она не брезгует ни скандалами, ни шантажом, ни истериками. Но если бы она знала, какие у дочери от неё секреты…
Меню: Русское, анимированное
Сэмпл: http://multi-up.com/1068412
Тип релиза: DVD5
Контейнер: DVD-Video
Видео: MPEG-2 PS, PAL, 720x576, VBR, 4:3, ~5264 mbps, 25 fps
Аудио: Русский (оригинал), AC-3, 6 ch, 48 kHz, 448 kbps

DVDInfo

Title: [2007] Репетитор (DVD-5)Size: 3.80 Gb ( 3 980 484,00 KBytes ) - DVD-5Enabled regions: 1, 2, 3, 4, 5, 6, 7, 8
VTS_01 : Play Length: 01:30:51 Video: PAL 4:3 (720x576) VBR Audio: English (Dolby AC3, 6 ch)
* Menus Information *
VIDEO_TS MenuVideo: PAL 4:3 (720x576) VBRAudio: Not specified (Dolby AC3, 6 ch)English Language Unit : Title Menu
VTS_01 MenuVideo: PAL 4:3 (720x576) VBRAudio: Not specified (Dolby AC3, 2 ch)English Language Unit : Root Menu Chapter (PTT) Menu

MediaInfo

General
Complete name : G:\Тёлкографии\[1984-12-01] Наталья Владимировна Костенёва\[2007] Репетитор (DVD-5)\VIDEO_TS\VTS_01_1.VOB
Format : MPEG-PS
File size : 1 024 MiB
Duration : 24mn 33s
Overall bit rate mode : Variable
Overall bit rate : 5 828 Kbps
Video
ID : 224 (0xE0)
Format : MPEG Video
Format version : Version 2
Format profile : Main@Main
Format settings, BVOP : Yes
Format settings, Matrix : Custom
Duration : 24mn 33s
Bit rate mode : Variable
Bit rate : 5 264 Kbps
Maximum bit rate : 9 000 Kbps
Width : 720 pixels
Height : 576 pixels
Display aspect ratio : 4:3
Frame rate : 25.000 fps
Standard : PAL
Color space : YUV
Chroma subsampling : 4:2:0
Bit depth : 8 bits
Scan type : Interlaced
Scan order : Bottom Field First
Compression mode : Lossy
Bits/(Pixel*Frame) : 0.508
Stream size : 925 MiB (90%)
Audio
ID : 189 (0xBD)-128 (0x80)
Format : AC-3
Format/Info : Audio Coding 3
Mode extension : CM (complete main)
Muxing mode : DVD-Video
Duration : 24mn 33s
Bit rate mode : Constant
Bit rate : 448 Kbps
Channel(s) : 6 channels
Channel positions : Front: L C R, Side: L R, LFE
Sampling rate : 48.0 KHz
Bit depth : 16 bits
Compression mode : Lossy
Stream size : 78.7 MiB (8%)

Скриншоты меню

Скриншоты

[Профиль] [ЛС]
Показать сообщения:    

Текущее время: Сегодня 02:45

Часовой пояс: GMT



Вы не можете начинать темы
Вы не можете отвечать на сообщения
Вы не можете редактировать свои сообщения
Вы не можете удалять свои сообщения
Вы не можете голосовать в опросах
Вы не можете прикреплять файлы к сообщениям
Вы не можете скачивать файлы