Реконструкция / Reconstruction (2003) DVDRip-AVC

 
Автор Сообщение

sergej644 ®

Пол:

Стаж: 4 года 11 месяцев

Сообщений: 6038

Откуда: Soviet Union



Награды: Нет

Торрент-статистика

Создавать темы 22-Фев-2015 11:33

[Цитировать]

Реконструкция / Reconstruction (2003) DVDRip-AVC
Информация о фильме
Название: Реконструкция
Оригинальное название: Reconstruction
Год выхода: 2003
Жанр: драма, мелодрама
Режиссер: Кристоффер Боэ / Christoffer Boe
В ролях: Клаус Мулбьерг, Николай Ли Каас, Мария Бонневи, Кристер Хенрикссон, Николас Бро, Петер Стеен, Ида Двингер, Малене Шварц, Хелли Факрайд, Мерседес Кларо Шелин
Описание: "Реконструкция" - ослепительный дебют не только молодого датского режиссера Кристоффера Бое, но и целой творческой группы "Mr. Boe & Co", члены которой объединены целью поиска "идеального кадра". О любви говорить все сложнее. Особенно в кино. Экранные чувства становятся все банальнее, традиционное психологическое кино повторяется. Новатор и концептуалист Бое предпринимает в своей дебютной ленте радикальный шаг: шел мужчина по улице, увидел женщину - и сразу понял, что ее любит. А она - его. Как аксиома. Дальнейшее - попытки реконструировать ее неведомые источники. Бесконечная вариативность событий, преображение объективной реальности. Влюбленный фотограф Алекс теряется в родном городе: вместо собственной квартиры - глухая стена, родные уверяют, что незнакомы с ним. Что произошло? Любовь трансформировала мир вокруг него?

Производство: Дания / Director's Cut, HR. Boe & Co., Nordisk Film A/S, TV2 Danmark
Продолжительность: 01:27:26
Перевод: Профессиональный (двухголосый, закадровый)
Навигация по главам: Есть
Файл
Качество: DVDRip-AVC
Формат: MKV
Видео: MPEG-4 AVC/H.264, 720x436@1024x436 (2.35:1), 25.000 fps, ~3643 kbps, 0.464 bit/pixel, crf
Аудио: AC3 Dolby Digital 5.1, 48 kHz, 384 kbps
Семпл

Доп. информация

Призы:
Призы "Золотая камера" и "Молодой взгляд" в Канне 2003;
Приз молодого жюри на 42-й международной неделе критики;
Приз "Золотой диск" МКФ в Чикаго 2003;
Приз фипресси "режиссер года" на МКФ в Сан-Себастьяне 2003;
2 приза "Роберт" 2004 (датский "оскар") за монтаж и звук;
Приз "Аманда" 2003 за лучший скандинавский кинодебют.

MediaInfo

Общее
Уникальный идентификатор : 175925773532109746878919746694487109930 (0x845A124F5D2BC378B9EC6AA6A476712A)
Полное имя : Rekonstruktsija.2003.DVDRip-AVC.mkv
Формат : Matroska
Версия формата : Version 4 / Version 2
Размер файла : 2,50 Гбайт
Продолжительность : 1 ч. 27 м.
Общий поток : 4101 Кбит/сек
Название фильма : Reconstruction (2003) DVDRip-AVC
Дата кодирования : UTC 2014-11-22 19:20:08
Программа кодирования : mkvmerge v7.3.0 ('Nouages') 64bit built on Oct 22 2014 18:53:34
Библиотека кодирования : libebml v1.3.0 + libmatroska v1.4.1
Видео
Идентификатор : 1
Формат : AVC
Формат/Информация : Advanced Video Codec
Профиль формата : High@L4.1
Параметр CABAC формата : Да
Параметр ReFrames формата : 12 кадров
Идентификатор кодека : V_MPEG4/ISO/AVC
Продолжительность : 1 ч. 27 м.
Битрейт : 3635 Кбит/сек
Ширина : 720 пикселей
Высота : 436 пикселей
Соотношение сторон : 2,35:1
Режим частоты кадров : Постоянный
Частота кадров : 25,000 кадров/сек
Цветовое пространство : YUV
Субдискретизация насыщенности : 4:2:0
Битовая глубина : 8 бит
Тип развёртки : Прогрессивная
Бит/(Пиксели*Кадры) : 0.463
Размер потока : 2,22 Гбайт (89%)
Заголовок : H.264, 720x436@1024x436 (2.35:1), 25.000 fps, ~3643 kbps, 0.464 Bits/(Pixel*Frame)
Библиотека кодирования : x264 core 142 r2479 dd79a61
Настройки программы : cabac=1 / ref=12 / deblock=1:0:0 / analyse=0x3:0x133 / me=tesa / subme=11 / psy=1 / psy_rd=1.00:0.15 / mixed_ref=1 / me_range=48 / chroma_me=1 / trellis=2 / 8x8dct=1 / cqm=0 / deadzone=21,11 / fast_pskip=0 / chroma_qp_offset=-3 / threads=12 / lookahead_threads=3 / sliced_threads=0 / nr=0 / decimate=1 / interlaced=0 / bluray_compat=0 / constrained_intra=0 / bframes=10 / b_pyramid=2 / b_adapt=2 / b_bias=0 / direct=3 / weightb=1 / open_gop=0 / weightp=2 / keyint=250 / keyint_min=25 / scenecut=40 / intra_refresh=0 / rc_lookahead=60 / rc=crf / mbtree=1 / crf=18.0 / qcomp=0.60 / qpmin=0 / qpmax=69 / qpstep=4 / vbv_maxrate=62500 / vbv_bufsize=78125 / crf_max=0.0 / nal_hrd=none / filler=0 / ip_ratio=1.40 / aq=1:1.00 / zones=126700,131166,q=38
Язык : Danish
Default : Да
Forced : Нет
Основные цвета : BT.709
Характеристики трансфера : BT.709
Коэффициенты матрицы : BT.709
colour_range : Limited
Аудио
Идентификатор : 2
Формат : AC-3
Формат/Информация : Audio Coding 3
Расширение режима : CM (complete main)
Параметр Endianness формата : Big
Идентификатор кодека : A_AC3
Продолжительность : 1 ч. 27 м.
Вид битрейта : Постоянный
Битрейт : 384 Кбит/сек
Каналы : 6 каналов
Расположение каналов : Front: L C R, Side: L R, LFE
Частота : 48,0 КГц
Битовая глубина : 16 бит
Метод сжатия : С потерями
Размер потока : 240 Мбайт (9%)
Заголовок : DVO (RUS) | AC3 Dolby Digital 5.1, 48 kHz, 384 kbps
Язык : Russian
Default : Да
Forced : Нет
Меню
00:00:00.000 : :Chapter 01
00:01:21.480 : :Chapter 02
00:07:14.880 : :Chapter 03
00:10:31.680 : :Chapter 04
00:15:08.640 : :Chapter 05
00:17:05.520 : :Chapter 06
00:21:18.000 : :Chapter 07
00:26:09.000 : :Chapter 08
00:29:01.680 : :Chapter 09
00:31:54.120 : :Chapter 10
00:35:08.160 : :Chapter 11
00:38:32.280 : :Chapter 12
00:40:48.600 : :Chapter 13
00:42:38.760 : :Chapter 14
00:45:12.960 : :Chapter 15
00:48:50.760 : :Chapter 16
00:52:12.600 : :Chapter 17
00:56:22.160 : :Chapter 18
00:59:10.520 : :Chapter 19
01:02:30.440 : :Chapter 20
01:07:04.760 : :Chapter 21
01:14:45.680 : :Chapter 22
01:20:50.720 : :Chapter 23
01:24:29.720 : :Chapter 24
01:27:21.440 : :Chapter 25

Скриншоты

[Профиль] [ЛС]

Создавать темы 06-Авг-2015 22:42 (спустя 5 месяцев 12 дней)

Топик был перенесен из форума Фильмы до 2014 года в форум Фильмы до 2012 года
sergej644
 
Кто просматривает тему:

Форум Тема Автор Размер
Отечественные cериалы 1812-1815. Заграничный поход [01-04 из 04] (Павел Тупик, Андрей Верещагин) [2014, Документальный, драма, исторический, реконструкция] WEB-DLRip BOSS 2.85 GB
Документальные HD 1812-1815. Заграничный Поход. Серии 1-4 (из 4) (Павел Тупик, Андрей Верещагин) [2014, Документальный | Реконструкция, HDTV 720p] TorrentFilm 6.29 GB
National Geographic NG: Убийство Иисуса / Killing Jesus (Кристофер Менол / Christopher Menaul) [2015 г., Драма, биография, история, религия, реконструкция, HDTVRip-AVC 720p] skorpionN 5.17 GB
Viasat History Viasat History: Женщины-самураи / Samurai Warrior Queens (Jon Wate) [2015 г., Документальный, история, реконструкция, SATRip] skorpionN 747 MB
Фантастика и фэнтези Александр Конторович – Реконструктор 02. Дорога в один конец (2015) MP3 Swager 621 MB
О войнах, армии и оружии Американская революция / The American Revolution [сезон 1 серии 1-3 из 3] (Kevin R. Hershberger) [2014 г., Документальный, история, реконструкция, SATRip] skorpionN 1.98 GB
Фильмы (HD DVD, Blu-ray и BDRemux) Лепрекон / Leprechaun (Марк Джонс / Mark Jones) [1993 г., США, Ужасы, фэнтези, комедия, BDRemux 1080p] 2xMVO + AVO (Михалёв) + Sub Rus, Eng + Original Eng sergej644 20.14 GB
Фильмы 2014 года Лепрекон: Начало / Leprechaun: Origins (Зэк Липовски / Zach Lipovsky) [2014, США, ужасы, WEB-DLRip] VO (datynet) + Original Eng Zithylord 1.44 GB
Показать сообщения:    

Текущее время: Сегодня 10:32

Часовой пояс: GMT



Вы не можете начинать темы
Вы не можете отвечать на сообщения
Вы не можете редактировать свои сообщения
Вы не можете удалять свои сообщения
Вы не можете голосовать в опросах
Вы не можете прикреплять файлы к сообщениям
Вы не можете скачивать файлы